Легенда озера духов / The Legend Of The Evil Lake (Кван-Хун Ли / Kwang-Hoon Lee) [2003 г., боевик, мелодрама, фэнтези, DVDRip] DVO

Ответить на тему
 
Автор
Сообщение

Пост 05-Май-2017 00:09

[Q] 

D_Ex

Корсар

-Легенда озера духов / The Legend Of The Evil Lake-- Производство: Южная Корея
Год выпуска: 2003 г.
Жанр: боевик, мелодрама, фэнтези
Продолжительность: 1:32:03
Мировая премьера: 28 ноября 2003
Дата выхода DVD: 9 сентября 2004
Перевод: Профессиональный (двухголосый, закадровый)
Режиссер: Кван-Хун Ли / Kwang-Hoon Lee-В ролях: Чон Джун-хо, Ким Хё-джин, Ким Хе-ри, Вон-сок Чхве, Сан Хо, Чан Хён-сон, Кан Щин-иль, Хан-гарл Ли.-Описание: В седую старину правитель страны Шила с помощью колдовского меча заточил в Озере Духов страшное зло. Но спустя почти тысячу лет древний демон вырывается на свободу, вселяется в возлюбленную славного воителя Бихаранга и начинает кровавый террор. Разрываясь между долгом и любовью, Бихаранг раз за разом упускает возможность уничтожить материальную оболочку мерзкого призрака, порождая смуту на высшем государственном уровне. Недруги героя намерены воспользоваться моментом, дабы свергнуть влюбленную в своего полководца королеву Шинзо.-
Качество видео: DVDRip
Контейнер: AVI
Видео кодек: XviD
Аудио кодек: MP3
Видео: 720 x 382 pixels, 3233 kbps, 59.94 fps, Bits/Pixel 0.196
Аудио: 160 kbps, 2 ch, 48kHz
Cубтитры: отсутствуют
General
Complete name : D:\Download\Легенда озера духов.avi
Format : AVI
Format/Info : Audio Video Interleave
Format profile : OpenDML
File size : 2.20 GiB
Duration : 1 h 32 min
Overall bit rate : 3 422 kb/s
Writing library : VirtualDub build 35491/release
Video
ID : 0
Format : MPEG-4 Visual
Format profile : Advanced Simple@L5
Format settings, BVOP : 1
Format settings, QPel : Yes
Format settings, GMC : No warppoints
Format settings, Matrix : Default (MPEG)
Codec ID : XVID
Codec ID/Hint : XviD
Duration : 1 h 32 min
Bit rate : 3 233 kb/s
Width : 720 pixels
Height : 382 pixels
Display aspect ratio : 2.25:1
Frame rate : 59.940 (60000/1001) FPS
Color space : YUV
Chroma subsampling : 4:2:0
Bit depth : 8 bits
Scan type : Progressive
Compression mode : Lossy
Bits/(Pixel*Frame) : 0.196
Stream size : 2.08 GiB (94%)
Writing library : XviD 67
Audio
ID : 1
Format : MPEG Audio
Format version : Version 1
Format profile : Layer 3
Mode : Joint stereo
Mode extension : MS Stereo
Codec ID : 55
Codec ID/Hint : MP3
Duration : 1 h 32 min
Bit rate mode : Constant
Bit rate : 160 kb/s
Channel(s) : 2 channels
Sampling rate : 48.0 kHz
Compression mode : Lossy
Stream size : 105 MiB (5%)
Alignment : Split accross interleaves
Interleave, duration : 17 ms (1.00 video frame)
Interleave, preload duration : 500 ms
Download / Скачать

Хотите скачать бесплатно? Зарегистрируйтесь на сайте (ссылка на регистрацию). Pirat.ca - самый быстрый торрент трекер в рунете!

Как скачивать  ·   Что такое торрент  ·   Рейтинг и ограничения



Последний раз редактировалось: D_Ex (2017-05-07 13:41), всего редактировалось 2 раз(а)

anton966

10851

Пост 10-Май-2018 11:10 (спустя 1 год)

[Q] 

Frame rate : 59.940 (60000/1001) FPS
796426Format settings, QPel : Yes
# сомнительно

_________________
" ...потому что во многой мудрости много печали; и кто умножает познания, умножает скорбь" ( Еккл 1:17,18)
[Профиль]  [ЛС] 
Показать сообщения:    
Ответить на тему

Текущее время: Сегодня 21:36

Часовой пояс: GMT + 4



Вы не можете начинать темы
Вы не можете отвечать на сообщения
Вы не можете редактировать свои сообщения
Вы не можете удалять свои сообщения
Вы не можете голосовать в опросах
Вы не можете прикреплять файлы к сообщениям
Вы не можете скачивать файлы

Майнать ▼