Все деньги мира / All the Money in the World (Ридли Скотт / Ridley Scott) [2017 г., триллер, драма, криминал, детектив, биография, BDRip, 1080p] Dub Sub (Rus,Eng)

Ответить на тему
 
Автор
Сообщение

Пост 06-Апр-2018 11:15

[Q] 

AlexDjas

Флибустьер

--Все деньги мира / All the Money in the World--«Заплатят все, кроме него»-- Производство: США / Imperative Entertainment
Год выпуска: 2017 г.
Жанр: триллер, драма, криминал, детектив, биография
Продолжительность: 02:12:42
Мировая премьера: 18 декабря 2017
Российская премьера: 2 февраля 2018, «Вольга»
Перевод: Профессиональный (полное дублирование) [iTunes]
Режиссёр: Ридли Скотт/Ridley Scott--В ролях: Мишель Уильямс, Кристофер Пламмер, Марк Уолберг, Ромен Дюрис, Тимоти Хаттон, Чарли Пламмер, Чарли Шотуэлл, Эндрю Бакан, Марко Леонарди, Джузеппе Бонифати--Описание: Во всем мире не было человека богаче, чем Пол Гетти. Принадлежать к его роду — все равно что быть богом. Однако, когда в Риме неизвестные похищают его внука, нефтяной магнат, ко всеобщему шоку, наотрез отказывается платить выкуп. И тогда единственной надеждой для матери мальчика становится таинственный сотрудник службы безопасности самого Гетти…-- Качество видео: BDRip
Контейнер: MKV
Стандарт разрешения: 1080p
Видео кодек: MPEG4 AVC
Аудио кодек: AC3
Видео: H.264/AVC, 1920x800, (2.40:1), 4263 kbps, 23.976 fps
Аудио: 48 kHz, AC3 Dolby Digital, 3/2 (L,C,R,l,r) + LFE ch, ~384 kbps RUS
Cубтитры:Русские (Полные), Английские (Полные,SHD,SHD Colored)
Общее
Уникальный идентификатор : 197738352001206166151323354895208511761 (0x94C30575B48FEC1B8C699F86EF057911)
Полное имя : D:\торрент\All the Money in the World_2017_ BDRip_1080p.mkv
Формат : Matroska
Версия формата : Version 2
Размер файла : 4,31 Гбайт
Продолжительность : 2 ч. 12 м.
Общий поток : 4650 Кбит/сек
Название фильма : Все деньги мира 2017 Dub Rus BDRip 1080p
Дата кодирования : UTC 2018-04-02 11:59:01
Программа кодирования : mkvmerge v5.2.0 ('I can't explain') built on Dec 18 2011 18:12:03
Библиотека кодирования : libebml v1.2.3 + libmatroska v1.3.0
Обложка : Yes
Attachments : Cover
Видео
Идентификатор : 1
Формат : AVC
Формат/Информация : Advanced Video Codec
Профиль формата : [email protected]
Настройки формата : CABAC / 5 Ref Frames
Параметр CABAC формата : Да
Параметр RefFrames формата : 5 кадров
Идентификатор кодека : V_MPEG4/ISO/AVC
Продолжительность : 2 ч. 12 м.
Битрейт : 4263 Кбит/сек
Ширина : 1920 пикселей
Высота : 800 пикселей
Соотношение сторон : 2,40:1
Режим частоты кадров : Постоянный
Частота кадров : 23,976 кадра/сек
Цветовое пространство : YUV
Субдискретизация насыщенности : 4:2:0
Битовая глубина : 8 бит
Тип развёртки : Прогрессивная
Бит/(Пиксели*Кадры) : 0.116
Размер потока : 3,87 Гбайт (90%)
Заголовок : Все деньги мира 2017 BDRip 1080p
Библиотека кодирования : x264 core 146 r2538 121396c
Настройки программы : cabac=1 / ref=5 / deblock=1:-1:-1 / analyse=0x3:0x113 / me=umh / subme=10 / psy=1 / psy_rd=1.00:0.00 / mixed_ref=1 / me_range=32 / chroma_me=1 / trellis=2 / 8x8dct=1 / cqm=0 / deadzone=21,11 / fast_pskip=0 / chroma_qp_offset=-2 / threads=3 / lookahead_threads=1 / sliced_threads=0 / nr=0 / decimate=1 / interlaced=0 / bluray_compat=0 / constrained_intra=0 / bframes=8 / b_pyramid=2 / b_adapt=2 / b_bias=0 / direct=3 / weightb=1 / open_gop=0 / weightp=2 / keyint=250 / keyint_min=23 / scenecut=40 / intra_refresh=0 / rc=2pass / mbtree=0 / bitrate=4263 / ratetol=1.0 / qcomp=0.60 / qpmin=0 / qpmax=69 / qpstep=4 / cplxblur=20.0 / qblur=0.5 / ip_ratio=1.40 / pb_ratio=1.30 / aq=2:1.00
Язык : English
Default : Да
Forced : Нет
Аудио
Идентификатор : 2
Формат : AC-3
Формат/Информация : Audio Coding 3
Идентификатор кодека : A_AC3
Продолжительность : 2 ч. 12 м.
Вид битрейта : Постоянный
Битрейт : 384 Кбит/сек
Каналы : 6 каналов
Расположение каналов : Front: L C R, Side: L R, LFE
Частота : 48,0 КГц
Частота кадров : 31,250 кадров/сек (1536 SPF)
Битовая глубина : 16 бит
Метод сжатия : С потерями
Размер потока : 364 Мбайт (8%)
Заголовок : DD 5.1 @ 384 Kbps - Дубляж | iTunes |
Язык : Russian
ServiceKind/String : Complete Main
Default : Да
Forced : Нет
Текст #1
Идентификатор : 3
Формат : UTF-8
Идентификатор кодека : S_TEXT/UTF8
Идентификатор кодека/Информация : UTF-8 Plain Text
Заголовок : Полные
Язык : Russian
Default : Нет
Forced : Нет
Текст #2
Идентификатор : 4
Формат : UTF-8
Идентификатор кодека : S_TEXT/UTF8
Идентификатор кодека/Информация : UTF-8 Plain Text
Заголовок : Full
Язык : English
Default : Нет
Forced : Нет
Текст #3
Идентификатор : 5
Формат : UTF-8
Идентификатор кодека : S_TEXT/UTF8
Идентификатор кодека/Информация : UTF-8 Plain Text
Заголовок : SDH
Язык : English
Default : Нет
Forced : Нет
Текст #4
Идентификатор : 6
Формат : UTF-8
Идентификатор кодека : S_TEXT/UTF8
Идентификатор кодека/Информация : UTF-8 Plain Text
Заголовок : SDH Colored
Язык : English
Default : Нет
Forced : Нет
Download / Скачать

Хотите скачать бесплатно? Зарегистрируйтесь на сайте (ссылка на регистрацию). Pirat.ca - самый быстрый торрент трекер в рунете!

Как скачивать  ·   Что такое торрент  ·   Рейтинг и ограничения

Кристина119

Гроза морей

Пост 07-Апр-2018 13:05 (спустя 1 день 1 час)

[Q] 

Спасибо, ждали Лови бочку
[Профиль]  [ЛС] 

grosboy

Гроза морей

Пост 08-Апр-2018 02:12 (спустя 13 часов)

[Q] 

Интересный фильм, суровый, жёсткий. На любителя...

_________________
Щастье есть - его не может не быть...
[Профиль]  [ЛС] 

alexandrover

Штурман

Пост 09-Апр-2018 15:04 (спустя 1 день 12 часов)

[Q] 

Лови бочку
Рейтинг 7,0 - качнем/глянем
[Профиль]  [ЛС] 

tumparov

Корсар

Пост 23-Апр-2018 13:37 (спустя 13 дней)

[Q] 

Ну так что могу сказать, на удивление несмотря на то, что фильм этот состоит в основном из одних диалогов, картинка всегда в движении, даже если сидят и говорят, впервые наверное я не заснул на таком кино, обычно к середине, а то и раньше уже храпел бы_)) Ну и само взаимоотношение героев тоже не дает расслабиться, не знаю как поколение 20 воспримет, но 35+ должно понравится... так как то_! Спасибо!!! Лови бочку
[Профиль]  [ЛС] 

_8165

Корсар

Пост 29-Апр-2018 16:54 (спустя 6 дней)

[Q] 

Отличный фильм Спасибо!!! Супер!
[Профиль]  [ЛС] 

SwordFish

Морской Волк

631

Пост 07-Май-2018 18:41 (спустя 8 дней)

[Q] 

Интересный фильм, но как по мне, немножко затянут.
[Профиль]  [ЛС] 

Mustafa Sazont

Корсар

Пост 11-Май-2018 13:57 (спустя 3 дня)

[Q] 

Фильм поражает человеческой жадностью: родному внуку ухо отрезают, а дедушка старая мразь картины покупает.
[Профиль]  [ЛС] 
Показать сообщения:    
Ответить на тему

Текущее время: Сегодня 07:06

Часовой пояс: GMT + 4



Вы не можете начинать темы
Вы не можете отвечать на сообщения
Вы не можете редактировать свои сообщения
Вы не можете удалять свои сообщения
Вы не можете голосовать в опросах
Вы не можете прикреплять файлы к сообщениям
Вы не можете скачивать файлы

Майнать ▼