Любовь и голуби / (Владимир Меньшов) [1984,мелодрама, комедия, HDRip-AVC 720p]

Ответить на тему
 
Автор
Сообщение

Пост 25-Мар-2018 00:20

[Q] 

aleksan555

Любовь и голуби --
>Год выпуска: 1984
>Производство: СССР, Мосфильм
>Жанр:мелодрама, комедия
>Продолжительность: 01:44:44
>Субтитры: нет
--
>Режиссёр: Владимир Меньшов
--
>В ролях:Нина Дорошина, Александр Михайлов , Людмила Гурченко, Янина Лисовская, Игорь Лях, Лада Сизоненко, Наталья Тенякова, Сергей Юрский, Владимир Меньшов, Константин Михайлов, Андрей Рабинович
>Описание:
Очень добрая и лиричная комедия о сибиряке , поехавшем отдохнуть на юг и встретившем там свою любовь . А дома, в деревне, у него жена, дети и... голуби, его страсть. Раиса Захаровна полюбила деревенского работягу и одобрила его увлечение голубями.
Вернулся Василий Кузякин с курорта не к себе в деревню, а в дом Раисы Захаровны. Началась для него новая жизнь, в которой было много непонятного и интересного, но не было дома, где остались Надя, дети и голуби...
--

--
>Качество: HDRip-AVC 720p
>Формат: MKV
>Видео кодек: H.264
>Аудио кодек: AC3
>Видео: MPEG4 Video (H264), 1280x720, 23,976fps,2500 Kbps,bit/pixel 0.113
>Аудио: AC3 48000Hz, stereo, 448kbps,6 ch
--
Общее
Уникальный идентификатор : 174403140319912920819661768219820900181 (0x8334D2B256A53574AF2476B4CDFD3F55)
Полное имя : H:\Любовь и голуби\Любовь и голуби_rip by_Aleksan55.mkv
Формат : Matroska
Версия формата : Version 2
Размер файла : 2,16 Гбайт
Продолжительность : 1 ч. 44 м.
Общий поток : 2950 Кбит/сек
Дата кодирования : UTC 2018-03-24 15:48:25
Программа кодирования : mkvmerge v7.8.0 ('River Man') 32bit built on Apr 3 2015 12:11:22
Библиотека кодирования : libebml v1.3.1 + libmatroska v1.4.2
Видео
Идентификатор : 1
Формат : AVC
Формат/Информация : Advanced Video Codec
Профиль формата : High@L4.1
Параметр CABAC формата : Да
Параметр ReFrames формата : 14 кадров
Идентификатор кодека : V_MPEG4/ISO/AVC
Продолжительность : 1 ч. 44 м.
Битрейт : 2500 Кбит/сек
Ширина : 1280 пикселей
Высота : 720 пикселей
Соотношение сторон : 16:9
Режим частоты кадров : Постоянный
Частота кадров : 23,976 (24000/1001) кадра/сек
Цветовое пространство : YUV
Субдискретизация насыщенности : 4:2:0
Битовая глубина : 8 бит
Тип развёртки : Прогрессивная
Бит/(Пиксели*Кадры) : 0.113
Размер потока : 1,79 Гбайт (83%)
Библиотека кодирования : x264 core 146 r2538 121396c
Настройки программы : cabac=1 / ref=14 / deblock=1:-3:-3 / analyse=0x3:0x133 / me=umh / subme=9 / psy=1 / psy_rd=1.00:0.15 / mixed_ref=0 / me_range=32 / chroma_me=1 / trellis=2 / 8x8dct=1 / cqm=0 / deadzone=21,11 / fast_pskip=1 / chroma_qp_offset=-3 / threads=3 / lookahead_threads=3 / sliced_threads=0 / nr=0 / decimate=0 / interlaced=0 / bluray_compat=0 / constrained_intra=0 / bframes=14 / b_pyramid=2 / b_adapt=1 / b_bias=0 / direct=3 / weightb=1 / open_gop=0 / weightp=2 / keyint=250 / keyint_min=25 / scenecut=40 / intra_refresh=0 / rc_lookahead=40 / rc=2pass / mbtree=1 / bitrate=2500 / ratetol=1.0 / qcomp=0.60 / qpmin=0 / qpmax=39 / qpstep=4 / cplxblur=20.0 / qblur=0.5 / ip_ratio=1.40 / aq=1:1.20
Default : Да
Forced : Нет
Цветовой диапазон : Limited
Основные цвета : BT.709
Характеристики трансфера : BT.709
Коэффициенты матрицы : BT.709
Аудио
Идентификатор : 2
Формат : AC-3
Формат/Информация : Audio Coding 3
Расширение режима : CM (complete main)
Параметр Endianness формата : Big
Идентификатор кодека : A_AC3
Продолжительность : 1 ч. 44 м.
Вид битрейта : Постоянный
Битрейт : 448 Кбит/сек
Каналы : 6 каналов
Расположение каналов : Front: L C R, Side: L R, LFE
Частота : 48,0 КГц
Частота кадров : 31,250 кадров/сек (1536 spf)
Битовая глубина : 16 бит
Метод сжатия : С потерями
Размер потока : 336 Мбайт (15%)
Default : Да
Forced : Нет
--
Download / Скачать

Хотите скачать бесплатно? Зарегистрируйтесь на сайте (ссылка на регистрацию). Pirat.ca - самый быстрый торрент трекер в рунете!

Как скачивать  ·   Что такое торрент  ·   Рейтинг и ограничения

proh2000

Морской Волк

Пост 30-Мар-2018 13:30 (спустя 5 дней)

[Q] 

Эх, ностальгия. С удовольствием посмотрю.
Спасибо раздающему!!!
[Профиль]  [ЛС] 

Mustafa Sazont

Корсар

Пост 11-Май-2018 14:22 (спустя 1 месяц 12 дней)

[Q] 

Это просто шедевр!
Раздающий молодчага!
[Профиль]  [ЛС] 
Показать сообщения:    
Ответить на тему

Текущее время: Сегодня 23:38

Часовой пояс: GMT + 4



Вы не можете начинать темы
Вы не можете отвечать на сообщения
Вы не можете редактировать свои сообщения
Вы не можете удалять свои сообщения
Вы не можете голосовать в опросах
Вы не можете прикреплять файлы к сообщениям
Вы не можете скачивать файлы

Майнать ▼