Апостол / Сезон: 1 / Серии: 1-12 (Юрий Мороз, Николай Лебедев, Геннадий Сидоров) [2008 г., военный, история, DVDRip]

Ответить на тему
 
Автор
Сообщение

Пост 29-Окт-2013 22:46

[Q] 

vasilich619

Флибустьер

-Апостол-- Производство: Россия / Элегия Мосфильм
Жанр: военный, история
Год выпуска: 2008 г.
Продолжительность: 12x~00:05
Мировая премьера: 25 февраля 2008
Российская премьера: 31 марта 2008
Дата выхода DVD: 13 марта 2008, «CP-Digital»
Режиссер: Юрий Мороз, Николай Лебедев, Геннадий Сидоров-В ролях: Евгений Миронов, Николай Фоменко, Дарья Мороз, Андрей Смирнов, Андрей Гусев, Юрий Назаров, Александр Новин, Алексей Комашко, Сергей Быстрицкий, Михаил Федоровский,-Описание: В начале войны немцы забрасывают в СССР своего диверсанта. Высадка проходит неудачно — шпиона захватывает НКВД. При попытке побега диверсант, оказавшийся русским вором в законе, случайно оставшимся на оккупированной территории, погибает. Чтобы найти остальных шпионов, участвующих в операции, чекистам приходится обратиться к брату-близнецу преступника — сельскому учителю. Тот занимает место покойного в немецкой агентурной сети и вступает в смертельно опасную игру…-
Качество видео: DVDRip
Контейнер: AVI
Видео кодек: XviD
Аудио кодек: AC3
Видео: 720x432, (1.667), 25.000 fps, MPEG4, XviD, 1 584 Kbps, 0.204 Bits/Pixel
Аудио: Русский, оригинал, 48.0 KHz, 6 ch, AC-3, 448 Kbps
Cубтитры: отсутствуют
Отличный, на мой взгляд, фильм, один из тех которые хочется периодически пересматривать, при чём с не меньшим удовольствием чем в первый раз, не смотря на многосерийность.
После минувшего Дня Победы просмотрел все, мало мальски стоящие сериалы и «полные метры» о Великой Отечественной Войне, сделал вывод что действительно хороших современных фильмов на эту тему очень не много, если не сказать больше. «Апостола» я бы назвал одним из лучших наших сериалов в целом.
Меня, лично, зацепила история Павла Истомина. Драматичность и трагизм ситуации, в которой оказался он, скромный, интеллигентный учитель и его семья. Не скажу, что меня удивляют, но точно не оставляют равнодушным метаморфозы, которые происходят с человеком, когда он сталкивается с жёсткими жизненными реалиями.
Отдельно отмечу сам процесс перевоплощения Истомина из тщедушного «очкарика» в вора-рецидивиста, без малейших признаков совести, это одна из изюминок фильма, а учитывая что играет его Евгений Миронов… думаю все понимают о чём я — лучше раз посмотреть, чем читать какие бы то ни было комментарии, об игре этого актёра можно часами говорить, при чём только хорошее.
В принципе сказал всё, фильм захватывающий, интересный, интригующий. Игра главного героя великолепна, остальные тоже вполне прилично сыграли. Думаю, что не многих «Апостол» оставит равнодушными.
9 из 10
General
Complete name : E:\Фильмы\Военные\Apostol (2008) DVDRip\Apostol_01_(2008) DVDRip.[pirat.ca].avi
Format : AVI
Format/Info : Audio Video Interleave
File size : 745 MiB
Duration : 51mn 5s
Overall bit rate : 2 039 Kbps
Writing application : VirtualDubMod 1.5.4.1 (build 2178/release)
Writing library : VirtualDubMod build 2178/release
Video
ID : 0
Format : MPEG-4 Visual
Format profile : Streaming [email protected]
Format settings, BVOP : Yes
Format settings, QPel : No
Format settings, GMC : No warppoints
Format settings, Matrix : Custom
Codec ID : XVID
Codec ID/Hint : XviD
Duration : 51mn 5s
Bit rate : 1 584 Kbps
Width : 720 pixels
Height : 432 pixels
Display aspect ratio : 1.667
Frame rate : 25.000 fps
Resolution : 24 bits
Colorimetry : 4:2:0
Scan type : Progressive
Bits/(Pixel*Frame) : 0.204
Stream size : 579 MiB (78%)
Writing library : XviD 1.2.1 (UTC 2008-12-04)
Audio
ID : 1
Format : AC-3
Format/Info : Audio Coding 3
Codec ID : 2000
Duration : 51mn 5s
Bit rate mode : Constant
Bit rate : 448 Kbps
Channel(s) : 6 channels
Channel positions : Front: L C R, Surround: L R, LFE
Sampling rate : 48.0 KHz
Stream size : 164 MiB (22%)
Alignment : Split accross interleaves
Interleave, duration : 96 ms (2.40 video frames)
Interleave, preload duration : 96 ms
Language : Russian
Download / Скачать

Хотите скачать бесплатно? Зарегистрируйтесь на сайте (ссылка на регистрацию). Pirat.ca - самый быстрый торрент трекер в рунете!

Как скачивать  ·   Что такое торрент  ·   Рейтинг и ограничения

viktor41

Морской Волк

Пост 29-Окт-2013 22:51 (спустя 4 минуты)

[Q] 

vasilich619, Спасибо ! Фильм классный.суперский ! Автору респект!!! Супер!
[Профиль]  [ЛС] 

Пост 29-Окт-2013 22:59 (спустя 8 минут)

Топик был перенесен из форума Отечественные сериалы (Трюм) в форум "Эхо войны"
kugesan
 

CHARLI2236

1212

Пост 24-Янв-2014 15:33 (спустя 2 месяца 25 дней)

[Q] 

подключусь AntiZip 10

_________________
[Профиль]  [ЛС] 

Prorok155

Корсар

Пост 20-Фев-2016 18:34 (спустя 2 года)

[Q] 

Спасибо. Супер!
[Профиль]  [ЛС] 

Mustafa Sazont

Корсар

Пост 11-Май-2018 15:02 (спустя 2 года 2 месяца)

[Q] 

Один из лучших современных российских сериалов!
Спасибо Вам vasilich619!
[Профиль]  [ЛС] 
Показать сообщения:    
Ответить на тему

Текущее время: Сегодня 12:09

Часовой пояс: GMT + 4



Вы не можете начинать темы
Вы не можете отвечать на сообщения
Вы не можете редактировать свои сообщения
Вы не можете удалять свои сообщения
Вы не можете голосовать в опросах
Вы не можете прикреплять файлы к сообщениям
Вы не можете скачивать файлы

Майнать ▼