Нелюбовь (Андрей Звягинцев) [2017 г., драма, BDRip-AVC] Original (RUS)][Лицензия]

Ответить на тему
 
Автор
Сообщение

Пост 01-Фев-2018 10:54

[Q] 

aleksey99

--Нелюбовь-- Производство: Россия / «Нон-стоп Продакшн»
Год выпуска: 2017 г.
Жанр: драма
Продолжительность: 02:01:46--Мировая премьера: 18 мая 2017
Российская премьера: 1 июня 2017, «WDSSPR»
Цифровой релиз: 14 августа 2017, «Централ Партнершип»--Режиссер: Андрей Звягинцев--В ролях: Марьяна Спивак, Алексей Розин, Матвей Новиков, Марина Васильева, Андрис Кейшс, Алексей Фатеев, Сергей Борисов, Наталья Потапова, Анна Гуляренко, Артем Жигулин--Описание: Фильм рассказывает о современной московской семье, переживающей тяжелый, мучительный развод. Главные герои (Женя и Борис) — ещё супруги, но каждый из них уже фактически начал новую главу жизни, и потому им не терпится покончить с формальностями и развестись. В череде конфликтов и бесконечных взаимных претензий Женя и Борис пренебрегают своим единственным ребенком, 12-летним Алёшей, который чувствует абсолютную ненужность обоим родителям. Неожиданно, после их очередной ссоры, Алёша исчезает.-- --Качество видео: BDRip-AVC
Контейнер: MKV
Видео кодек: H.264
Аудио кодек: AC3
Видео: AVC, 1024x428 (2.40:1), 1850 Kbit/s, 25.000 fps, 0,169 bpp
Аудио: 48 kHz, AC3 Dolby Digital, 3/2 (L,C,R,l,r) + LFE ch, ~384 kbps
Cубтитры: отсутствуют
Общее
Уникальный идентификатор : 211029957217269612085509414209093926930 (0x9EC2E43144444D1F8134BC8B10488012)
Полное имя : H:\Torrent2\Nolove.2017.BDRip.AVC.mkv
Формат : Matroska
Версия формата : Version 2
Размер файла : 1,95 Гбайт
Продолжительность : 2 ч. 1 м.
Общий поток : 2298 Кбит/сек
Дата кодирования : UTC 2018-02-01 04:58:10
Программа кодирования : mkvmerge v5.6.0 ('Kenya Kane') built on May 27 2012 16:44:04
Библиотека кодирования : libebml v1.2.3 + libmatroska v1.3.0
Видео
Идентификатор : 1
Формат : AVC
Формат/Информация : Advanced Video Codec
Профиль формата : [email protected]
Настройки формата : CABAC / 13 Ref Frames
Параметр CABAC формата : Да
Параметр RefFrames формата : 13 кадров
Идентификатор кодека : V_MPEG4/ISO/AVC
Продолжительность : 2 ч. 1 м.
Битрейт : 1850 Кбит/сек
Ширина : 1024 пикселя
Высота : 428 пикселей
Соотношение сторон : 2,40:1
Режим частоты кадров : Постоянный
Частота кадров : 25,000 кадров/сек
Цветовое пространство : YUV
Субдискретизация насыщенности : 4:2:0
Битовая глубина : 8 бит
Тип развёртки : Прогрессивная
Бит/(Пиксели*Кадры) : 0.169
Размер потока : 1,53 Гбайт (79%)
Заголовок : Enigma
Библиотека кодирования : x264 core 152 r2851 ba24899
Настройки программы : cabac=1 / ref=13 / deblock=1:-2:-2 / analyse=0x3:0x113 / me=umh / subme=10 / psy=1 / psy_rd=1.05:0.10 / mixed_ref=1 / me_range=32 / chroma_me=1 / trellis=2 / 8x8dct=1 / cqm=0 / deadzone=21,11 / fast_pskip=0 / chroma_qp_offset=-3 / threads=12 / lookahead_threads=3 / sliced_threads=0 / nr=0 / decimate=0 / interlaced=0 / bluray_compat=0 / constrained_intra=0 / bframes=14 / b_pyramid=2 / b_adapt=2 / b_bias=0 / direct=3 / weightb=1 / open_gop=0 / weightp=2 / keyint=250 / keyint_min=25 / scenecut=40 / intra_refresh=0 / rc_lookahead=40 / rc=2pass / mbtree=0 / bitrate=1850 / ratetol=1.0 / qcomp=0.60 / qpmin=0 / qpmax=51 / qpstep=4 / cplxblur=20.0 / qblur=0.5 / vbv_maxrate=50000 / vbv_bufsize=62500 / nal_hrd=none / filler=0 / ip_ratio=1.40 / pb_ratio=1.30 / aq=1:1.00
Язык : English
Default : Да
Forced : Нет
Цветовой диапазон : Limited
Основные цвета : BT.709
Характеристики трансфера : BT.709
Коэффициенты матрицы : BT.709
Аудио
Идентификатор : 2
Формат : AC-3
Формат/Информация : Audio Coding 3
Идентификатор кодека : A_AC3
Продолжительность : 2 ч. 1 м.
Вид битрейта : Постоянный
Битрейт : 448 Кбит/сек
Каналы : 6 каналов
Расположение каналов : Front: L C R, Side: L R, LFE
Частота : 48,0 КГц
Частота кадров : 31,250 кадров/сек (1536 SPF)
Битовая глубина : 16 бит
Метод сжатия : С потерями
Размер потока : 390 Мбайт (19%)
Заголовок : Лицензия
Язык : Russian
ServiceKind/String : Complete Main
Default : Да
Forced : Нет
Меню
00:00:00.000 : :Chapter 01
00:08:58.000 : :Chapter 02
00:19:00.000 : :Chapter 03
00:27:38.240 : :Chapter 04
00:34:28.920 : :Chapter 05
00:47:27.120 : :Chapter 06
01:00:50.840 : :Chapter 07
01:09:28.200 : :Chapter 08
01:16:29.800 : :Chapter 09
01:27:02.080 : :Chapter 10
01:36:34.720 : :Chapter 11
01:45:30.640 : :Chapter 12
02:01:45.920 : :Chapter 13
Трейлер
Download / Скачать

Хотите скачать бесплатно? Зарегистрируйтесь на сайте (ссылка на регистрацию). Pirat.ca - самый быстрый торрент трекер в рунете!

Как скачивать  ·   Что такое торрент  ·   Рейтинг и ограничения

Opium

Морской Волк

Пост 02-Фев-2018 16:16 (спустя 1 день 5 часов)

[Q] 

Обязательнопосмотрю.
[Профиль]  [ЛС] 

Mustafa Sazont

Корсар

Пост 11-Май-2018 18:28 (спустя 3 месяца 9 дней)

[Q] 

Папа в кратер насыпает, маме в кратер насыпают.
А СЫН ПОХЕР! Вот уж семейка.
[Профиль]  [ЛС] 

Victorsalata

Флибустьер

Пост 25-Авг-2018 20:00 (спустя 3 месяца 14 дней)

[Q] 

Странный фильм Звягинцева. Нужно еще раз просмотреть.
[Профиль]  [ЛС] 
Показать сообщения:    
Ответить на тему

Текущее время: Сегодня 16:38

Часовой пояс: GMT + 4



Вы не можете начинать темы
Вы не можете отвечать на сообщения
Вы не можете редактировать свои сообщения
Вы не можете удалять свои сообщения
Вы не можете голосовать в опросах
Вы не можете прикреплять файлы к сообщениям
Вы не можете скачивать файлы

Майнать ▼