Завуалируй это / Cherchez la femme (Со Абади / Sou Abadi) [2017 г., комедия, WEB-DLRip] MVO [Чистый звук]

Ответить на тему
 
Автор
Сообщение

Пост 28-Янв-2018 09:12

[Q] 

aleksey99

--Завуалируй это / Cherchez la femme-- Производство: Франция / Films Distribution
Год выпуска: 2017 г.
Жанр: комедия
Продолжительность: 01:28:04--Мировая премьера: 15 июня 2017
Российская премьера: 26 октября 2017, «Артхаус»--Перевод: Профессиональный (многоголосый, закадровый) [Чистый звук]--Режиссер: Со Абади / Sou Abadi--В ролях: Феликс Моати, Уилльям Лебхил, Камелия Джордана, Анн Альваро, Мики Манойлович, Карл Малапа, Лорен Дельбек, Оскар Копп--Описание: Парижане Арман и Лейла страстно влюблены друг в друга. Это становится проблемой, когда из Йемена возвращается суровый старший брат Лейлы Махмуд, неожиданно ударившийся в религию. Чтобы положить конец «непотребному» образу жизни Лейлы, Махмуд не дает ей видеться с парнем. Но Арман не собирается сдаваться. Чтобы встречаться с любимой, не привлекая внимание брата, он приходит к ним в дом под видом смиренной Шахерезады, с ног до головы завернутой в хиджаб. Загадочная скромница не может не понравиться Махмуду…-- --Качество видео: WEB-DLRip
Контейнер: AVI
Видео кодек: XviD
Аудио кодек: AC3
Видео: 720x304 (2.37:1), 25 fps, XviD build 73 ~1980 kbps avg, 0.36 bit/pixel
Аудио: 44.1 kHz, AC3 Dolby Digital, 2/0 (L,R) ch, ~384 kbps
Cубтитры: отсутствуют.
Общее
Полное имя : H:\Torrent2\Zavualiruj.eto.2017.MVO.WEB-DLRip.1.46Gb.avi
Формат : AVI
Формат/Информация : Audio Video Interleave
Размер файла : 1,46 Гбайт
Продолжительность : 1 ч. 28 м.
Общий поток : 2375 Кбит/сек
Видео
Идентификатор : 0
Формат : MPEG-4 Visual
Профиль формата : Advanced [email protected]
Настройки формата : BVOP2 / Custom Matrix
Параметр BVOP формата : 2
Параметр QPel формата : Нет
Параметр GMC формата : Без точки перехода
Параметр матрицы формата : Выборочная
Идентификатор кодека : XVID
Идентификатор кодека/Подсказка : XviD
Продолжительность : 1 ч. 28 м.
Битрейт : 1981 Кбит/сек
Ширина : 720 пикселей
Высота : 304 пикселя
Соотношение сторон : 2,35:1
Частота кадров : 25,000 кадров/сек
Цветовое пространство : YUV
Субдискретизация насыщенности : 4:2:0
Битовая глубина : 8 бит
Тип развёртки : Прогрессивная
Метод сжатия : С потерями
Бит/(Пиксели*Кадры) : 0.362
Размер потока : 1,22 Гбайт (83%)
Библиотека кодирования : XviD 73
Аудио
Идентификатор : 1
Формат : AC-3
Формат/Информация : Audio Coding 3
Идентификатор кодека : 2000
Продолжительность : 1 ч. 28 м.
Вид битрейта : Постоянный
Битрейт : 384 Кбит/сек
Каналы : 2 канала
Расположение каналов : Front: L R
Частота : 44,1 КГц
Частота кадров : 28,711 кадров/сек (1536 SPF)
Битовая глубина : 16 бит
Метод сжатия : С потерями
Размер потока : 242 Мбайт (16%)
Выравнивание : Соединение по промежуткам
Продолжительность промежутка : 35 мс. (0,87 видеокадр)
Время предзагрузки промежутка : 522 мс.
ServiceKind/String : Complete Main
Трейлер
Download / Скачать

Хотите скачать бесплатно? Зарегистрируйтесь на сайте (ссылка на регистрацию). Pirat.ca - самый быстрый торрент трекер в рунете!

Как скачивать  ·   Что такое торрент  ·   Рейтинг и ограничения

lightmaster

Гроза морей

Пост 28-Янв-2018 14:54 (спустя 5 часов)

[Q] 

Скачали всего 2, а поблагодарили 10. За что поблагодарили 8?
[Профиль]  [ЛС] 

Ruslan2800

Штурман

Пост 28-Янв-2018 18:53 (спустя 3 часа)

[Q] 

817842Скачали всего 2, а поблагодарили 10. За что поблагодарили 8?
)) За что, понятно - конечно за труды и усилия по созданию раздачи!
Вы на верное хотели спросить - "почему они поблагодарили, не скачав фильм"? Загадка)))
[Профиль]  [ЛС] 

cvbnb

Штурман

Пост 28-Янв-2018 19:15 (спустя 21 минута)

[Q] 

скоро у французов все фмльмы будут про Махмудов!!!))))

_________________
[Профиль]  [ЛС] 

Aurums

Корсар

Пост 31-Янв-2018 20:47 (спустя 3 дня)

[Q] 

817867скоро у французов все фмльмы будут про Махмудов!!!))))
)))))) Это точно)
[Профиль]  [ЛС] 

vasdas

Корсар

Пост 31-Мар-2018 04:54 (спустя 1 месяц 30 дней)

[Q] 

мне понравилось Автору респект!!! посмотрел с 2 захода, но надо посмотреть первые 15 минут, потом затягивает Лови бочку
[Профиль]  [ЛС] 

Mustafa Sazont

Корсар

Пост 11-Май-2018 18:36 (спустя 1 месяц 11 дней)

[Q] 

Не тратьте время на просмотр этого дерьма!
Добавлено спустя 2 минуты 53 секунды:
817867скоро у французов все фмльмы будут про Махмудов!!!))))
Логичнее предположить, что скоро все французы станут Махмудами.
[Профиль]  [ЛС] 
Показать сообщения:    
Ответить на тему

Текущее время: Сегодня 16:58

Часовой пояс: GMT + 4



Вы не можете начинать темы
Вы не можете отвечать на сообщения
Вы не можете редактировать свои сообщения
Вы не можете удалять свои сообщения
Вы не можете голосовать в опросах
Вы не можете прикреплять файлы к сообщениям
Вы не можете скачивать файлы

Майнать ▼