Заложники (Резо Гигинеишвили) [2017 г., драма, триллер, биография, история, BDRip-AVC] Original (RUS)[Лицензия] + Sub (Rus)

Ответить на тему
 
Автор
Сообщение

Пост 06-Янв-2018 18:25

[Q] 

aleksey99

--Заложники-- Производство: Россия, Грузия / «Кинокомпания «Небо», 20 Steps Productions, Extreme Emotions.
Год выпуска: 2017 г.
Жанр: драма, триллер, биография, история
Продолжительность: 01:43:49--Мировая премьера: 10 февраля 2017
Российская премьера: 21 сентября 2017, «Централ Партнершип»
Цифровой релиз: 02 ноября 2017, «All media»
Дата выхода DVD: 13 ноября 2017, «НД Плэй»
Дата выхода Blu-Ray: 13 ноября 2017, «НД Плэй»--Режиссер: Резо Гигинеишвили--В ролях: Тинатин Далакишвили, Ираклий Квирикадзе, Дареджан Харшиладзе, Мераб Нинидзе, Гига Датиашвили, Гиорги Грдзелидзе, Георгий Табидзе, Гиорги Хурцилава, Вахтанг Чачанидзе, Кети Калатозишвили, Бека Лемонджава, Надежда Михалкова, Мария Шалаева, Автандил Махарадзе, Михаил Гомиашвили, Александр Никитин--Описание: Начало 80-х. Советская Грузия. Всего несколько лет до распада Советского Союза. Молодые люди из уважаемых грузинских семей ищут себя в условиях закрытой системы. Музыка Beatles, джинсы, американские сигареты, положение в обществе, гарантированное будущее… У них, казалось, было все, кроме одного — свободы. Цена этой свободы окажется слишком высока… Подлинная история о событиях 1983 года, когда шесть парней и одна девушка пытались угнать самолет с целью побега из СССР.-- --Качество видео: BDRip-AVC
Контейнер: MKV
Видео кодек: H.264
Аудио кодек: AC3
Видео: AVC at 1567 Кбит/сек, 1056x396 (2.667) at 23,976 fps
Аудио: 48 kHz, AC3 Dolby Digital, 3/2 (L,C,R,l,r) + LFE ch, ~448 kbps
Cубтитры: русские.
Общее
Уникальный идентификатор : 225961772568721795103661646646789960445 (0xA9FEA78743333860ABDD804989DA72FD)
Полное имя : H:\Torrent2\Zalozhniki.2017.RUS.BDRip.x264.mkv
Формат : Matroska
Версия формата : Version 4 / Version 2
Размер файла : 1,46 Гбайт
Продолжительность : 1 ч. 43 м.
Общий поток : 2016 Кбит/сек
Название фильма : Заложники (2017)
Дата кодирования : UTC 2017-11-13 15:05:06
Программа кодирования : mkvmerge v5.9.0 ('On The Loose') built on Dec 15 2012 16:39:58
Библиотека кодирования : libebml v1.3.0 + libmatroska v1.4.0
Видео
Идентификатор : 1
Формат : AVC
Формат/Информация : Advanced Video Codec
Профиль формата : [email protected]
Параметр CABAC формата : Да
Параметр ReFrames формата : 10 кадров
Идентификатор кодека : V_MPEG4/ISO/AVC
Продолжительность : 1 ч. 43 м.
Битрейт : 1567 Кбит/сек
Ширина : 1056 пикселей
Высота : 396 пикселей
Соотношение сторон : 2,667
Режим частоты кадров : Постоянный
Частота кадров : 24,000 кадра/сек
Цветовое пространство : YUV
Субдискретизация насыщенности : 4:2:0
Битовая глубина : 8 бит
Тип развёртки : Прогрессивная
Бит/(Пиксели*Кадры) : 0.156
Размер потока : 1,11 Гбайт (76%)
Заголовок : potroks
Библиотека кодирования : x264 core 152 r2851M ba24899
Настройки программы : cabac=1 / ref=10 / deblock=1:-1:-1 / analyse=0x3:0x132 / me=umh / subme=11 / psy=1 / psy_rd=1.00:0.10 / mixed_ref=1 / me_range=48 / chroma_me=1 / trellis=2 / 8x8dct=1 / cqm=0 / deadzone=21,11 / fast_pskip=0 / chroma_qp_offset=-3 / threads=9 / lookahead_threads=2 / sliced_threads=0 / nr=0 / decimate=0 / interlaced=0 / bluray_compat=0 / constrained_intra=0 / bframes=11 / b_pyramid=2 / b_adapt=2 / b_bias=0 / direct=3 / weightb=1 / open_gop=0 / weightp=2 / keyint=240 / keyint_min=23 / scenecut=40 / intra_refresh=0 / rc_lookahead=0 / rc=2pass / mbtree=0 / bitrate=1567 / ratetol=1.0 / qcomp=0.70 / qpmin=0 / qpmax=69 / qpstep=4 / cplxblur=20.0 / qblur=0.5 / vbv_maxrate=50000 / vbv_bufsize=35714 / nal_hrd=none / filler=0 / ip_ratio=1.40 / pb_ratio=1.30 / aq=1:0.80
Default : Да
Forced : Нет
Аудио
Идентификатор : 2
Формат : AC-3
Формат/Информация : Audio Coding 3
Расширение режима : CM (complete main)
Параметр Endianness формата : Big
Идентификатор кодека : A_AC3
Продолжительность : 1 ч. 43 м.
Вид битрейта : Постоянный
Битрейт : 448 Кбит/сек
Каналы : 6 каналов
Расположение каналов : Front: L C R, Side: L R, LFE
Частота : 48,0 КГц
Частота кадров : 31,250 кадров/сек (1536 spf)
Метод сжатия : С потерями
Размер потока : 333 Мбайт (22%)
Заголовок : Dub | DD 5.1 @ 448 kbps - Blu-ray RUS
Язык : Russian
Default : Да
Forced : Нет
Текст
Идентификатор : 3
Формат : UTF-8
Идентификатор кодека : S_TEXT/UTF8
Идентификатор кодека/Информация : UTF-8 Plain Text
Заголовок : Blu-ray RUS
Язык : Russian
Default : Нет
Forced : Нет
Меню
00:00:00.000 : :(01)00:00:00:000
00:02:01.250 : :(02)00:02:01:250
00:15:40.250 : :(03)00:15:40:250
00:28:47.291 : :(04)00:28:47:291
00:44:00.125 : :(05)00:44:00:125
00:55:02.791 : :(06)00:55:02:791
01:07:50.083 : :(07)01:07:50:083
01:18:44.375 : :(08)01:18:44:375
01:31:25.000 : :(09)01:31:25:000
Трейлер
Download / Скачать

Хотите скачать бесплатно? Зарегистрируйтесь на сайте (ссылка на регистрацию). Pirat.ca - самый быстрый торрент трекер в рунете!

Как скачивать  ·   Что такое торрент  ·   Рейтинг и ограничения

Kmscom

Шкипер

Пост 06-Янв-2018 19:59 (спустя 1 час 33 минуты)

[Q] 

История детей-мажеров в "застойные" времена.
[Профиль]  [ЛС] 

Alingva

Легенда

468

Пост 06-Янв-2018 20:22 (спустя 22 минуты)

[Q] 

816194История детей-мажеров в "застойные" времена.
Ну что Вы так не пиндосно-либерастно выражаетесь? Правильно говорить борцы с режимом "империи зла", бойцы за свободу и т.п.! А Вы "История детей-мажеров"

_________________
Если Вам кажется что у Вас нимб над головой, то не обращайте на него внимание - это просто мания величия!
[Профиль]  [ЛС] 

clark

Флибустьер

Пост 06-Янв-2018 21:28 (спустя 1 час 6 минут)

[Q] 

посмотрим спасибо

_________________
Последним смеётся тот, кто стреляет первым.
[Профиль]  [ЛС] 

Мерзавец

Морской Волк

Пост 06-Янв-2018 22:26 (спустя 57 минут)

[Q] 

как это трогательно - серп, молот....и звезда!
[Профиль]  [ЛС] 

mash8055

Шкипер

Пост 07-Янв-2018 20:21 (спустя 21 час)

[Q] 

816231как это трогательно - серп, молот....и звезда!
Трогательно - это твои детские фотографии, или подобные твоей аватарке. Серп, молот, звезда - символы единения и силы. Память о великой стране.
[Профиль]  [ЛС] 

klaus38

Штурман

Пост 08-Янв-2018 00:13 (спустя 3 часа)

[Q] 

"Серп, молот, звезда - символы единения и силы. Память о великой стране."
Аминь! Разнесли "великую страну" за джинсы и колбасу, а теперь, тыря кинци с торентов размышляют о самой честной мечте человечества! Клоуны!
[Профиль]  [ЛС] 

UGR

Морской Волк

Пост 08-Янв-2018 13:25 (спустя 13 часов)

[Q] 

как всегда исказили историю....экипаж жаль...
[Профиль]  [ЛС] 

mash8055

Шкипер

Пост 08-Янв-2018 17:04 (спустя 3 часа)

[Q] 

816380"Серп, молот, звезда - символы единения и силы. Память о великой стране."
Аминь! Разнесли "великую страну" за джинсы и колбасу, а теперь, тыря кинци с торентов размышляют о самой честной мечте человечества! Клоуны!
У вас сознание как у школьника и логика как у новорожденного.
[Профиль]  [ЛС] 

Пост 09-Фев-2018 16:52 (спустя 1 месяц)

Топик был перенесен из форума Новинки (HD|DVD|BD| TV|SAT|PDTV| - Rips) в форум Российские фильмы
aleksey99
 

tilebok

Корсар

Пост 24-Мар-2018 09:07 (спустя 2 месяца 15 дней)

[Q] 

есть смысл качать?
[Профиль]  [ЛС] 

Мерзавец

Морской Волк

Пост 12-Май-2018 13:16 (спустя 1 месяц 19 дней)

[Q] 

816344
816231как это трогательно - серп, молот....и звезда!
Трогательно - это твои детские фотографии, или подобные твоей аватарке. Серп, молот, звезда - символы единения и силы. Память о великой стране.
Маша, не чуди, так.....милая :)
Добавлено спустя 4 минуты 37 секунд:
816443
816380"Серп, молот, звезда - символы единения и силы. Память о великой стране."
Аминь! Разнесли "великую страну" за джинсы и колбасу, а теперь, тыря кинци с торентов размышляют о самой честной мечте человечества! Клоуны!
У вас сознание как у школьника и логика как у новорожденного.
Волю тебе в голову!....три раза!
[Профиль]  [ЛС] 
Показать сообщения:    
Ответить на тему

Текущее время: Сегодня 14:14

Часовой пояс: GMT + 4



Вы не можете начинать темы
Вы не можете отвечать на сообщения
Вы не можете редактировать свои сообщения
Вы не можете удалять свои сообщения
Вы не можете голосовать в опросах
Вы не можете прикреплять файлы к сообщениям
Вы не можете скачивать файлы

Майнать ▼