Первому игроку приготовиться / Ready Player One (Стивен Спилберг / Steven Spielberg) [2018 г., фантастика, боевик, приключения, TS 720p] MVO

Ответить на тему
 
Автор
Сообщение

Пост 09-Май-2018 20:51

[Q] 

tank69

Корсар

-Первому игроку приготовиться / Ready Player One-- Производство: США, Warner Bros
Год выпуска: 2018 г.
Жанр: фантастика, боевик, приключения
Продолжительность: 02:22:00
Мировая премьера: 29 марта 2018
Перевод: Профессиональный (многоголосый, закадровый)
Режиссёр: Стивен Спилберг / Steven Spielberg-В ролях: Тай Шеридан, Оливия Кук, Бен Мендельсон, Лина Уэйте, ТиДжей Миллер, Саймон Пегг, Марк Райлэнс, Уин Морисаки, Ханна Джон-Кэймен-Описание: Действие картины происходит в 2045 году.
У людей остался один интерес — компьютерная игра OASIS, погружающая игрока в увлекательный мир виртуальной реальности, отвлекающей от насущных проблем. Создатель OASIS'а эксцентричный миллиардер Джеймс Холлидей (его аватар Анорак), скончавшись, оставил в игре пасхальное яйцо, к которому ведут три ключа. Тот, кто пройдёт «квест Анорака» и первым доберётся до яйца, получит $500 млрд и контроль над OASIS'ом.
Главный герой — подросток Уэйд Оуэн Уоттс живёт в грязном, перенаселённом Коламбусе (Огайо), в трущобах под названием Штабеля.
Совершенно негероический по своей натуре, он решает принять участие в состязании, с головой бросаясь в головокружительную, искажающую реальность погоню за сокровищами по фантастической вселенной, полной загадок, открытий и опасностей.-
Качество видео: TS
Контейнер: MKV
Стандарт разрешения: 720p
Видео кодек: MPEG4 AVC
Аудио кодек: AC3
Видео: AVC, 1280x538, 23,976 fps, 4509 Kbps
Аудио: русский, АС-3, 48.0 KHz, 2 ch, 755 Kbps - профессиональный (многоголосый, закадровый)
Cубтитры: корейские
Формат субтитров: hardsub (неотключаемые)
Общее
Уникальный идентификатор : 174690018385153677267507867520771945721 (0x836C12E0950B15CD80B2F661B3FDF4F9)
Полное имя : E:\Ready Player One.2018.Dt.HDTV.72Op_KOSHARA.mkv
Формат : Matroska
Версия формата : Version 2
Размер файла : 4,86 Гбайт
Продолжительность : 2 ч. 22 м.
Режим общего битрейта : Переменный
Общий поток : 4895 Кбит/сек
Дата кодирования : UTC 2018-05-09 14:56:17
Программа кодирования : mkvmerge v8.3.0 ('Over the Horizon') 64bit
Библиотека кодирования : libebml v1.3.1 + libmatroska v1.4.2
Видео
Идентификатор : 1
Формат : AVC
Формат/Информация : Advanced Video Codec
Профиль формата : High@L4.1
Настройки формата : CABAC / 4 Ref Frames
Параметр CABAC формата : Да
Параметр RefFrames формата : 4 кадра
Идентификатор кодека : V_MPEG4/ISO/AVC
Продолжительность : 2 ч. 22 м.
Вид битрейта : Переменный
Битрейт : 4509 Кбит/сек
Максимальный битрейт : 5000 Кбит/сек
Ширина : 1280 пикселей
Высота : 538 пикселей
Соотношение сторон : 2,40:1
Режим частоты кадров : Постоянный
Частота кадров : 23,976 (24000/1001) кадра/сек
Стандарт вещания : Component
Цветовое пространство : YUV
Субдискретизация насыщенности : 4:2:0
Битовая глубина : 8 бит
Тип развёртки : Прогрессивная
Бит/(Пиксели*Кадры) : 0.273
Размер потока : 4,48 Гбайт (92%)
Default : Да
Forced : Нет
Цветовой диапазон : Limited
Основные цвета : BT.709
Характеристики трансфера : BT.709
Коэффициенты матрицы : BT.709
Аудио
Идентификатор : 2
Формат : AC-3
Формат/Информация : Audio Coding 3
Идентификатор кодека : A_AC3
Продолжительность : 2 ч. 22 м.
Вид битрейта : Постоянный
Битрейт : 384 Кбит/сек
Каналы : 2 канала
Расположение каналов : Front: L R
Частота : 48,0 КГц
Частота кадров : 31,250 кадров/сек (1536 SPF)
Битовая глубина : 16 бит
Метод сжатия : С потерями
Размер потока : 390 Мбайт (8%)
ServiceKind/String : Complete Main
Default : Да
Forced : Нет
Внимание! Присутствует реклама!
Download / Скачать

Хотите скачать бесплатно? Зарегистрируйтесь на сайте (ссылка на регистрацию). Pirat.ca - самый быстрый торрент трекер в рунете!

Как скачивать  ·   Что такое торрент  ·   Рейтинг и ограничения



Последний раз редактировалось: tank69 (2018-05-09 22:53), всего редактировалось 2 раз(а)

tank69 ®

Корсар

1074

Пост 09-Май-2018 20:52 (спустя 1 минута)

[Q] 

ВНИМАНИЕ - присутствует реклама.
[Профиль]  [ЛС] 

tank69 ®

Корсар

1074

Пост 09-Май-2018 22:47 (спустя 1 час 54 минуты)

[Q] 

tank69,
Надо же так в точку попасть с сэмплом)
Перезалил.
Качество пока такое..будет получше - выложу.
Спс.
[Профиль]  [ЛС] 

Пост 10-Май-2018 13:41 (спустя 14 часов)

Топик был перенесен из форума Зарубежное Кино (Трюм) в форум Новинки (CamRip/TS)
erchine
 

Кристина119

Гроза морей

Пост 10-Май-2018 15:25 (спустя 16 часов)

[Q] 

Все таки была TS-ка, а не HD...
[Профиль]  [ЛС] 

tank69 ®

Корсар

1074

Пост 10-Май-2018 16:21 (спустя 56 минут)

[Q] 

Кристина119,
Сам разочарован качеством :(
Но для ознакомления вполне норм)
Фильм весьма интересный...идея и концепция подачи истории, как в фильме 'Аватар'.а еще немного нопомнило 'Суррогаты'..в общем мне кино понравилось, будет в качестве - однозначно в коллекцию.
[Профиль]  [ЛС] 

alersander

Корсар

Пост 12-Май-2018 10:04 (спустя 1 день 17 часов)

[Q] 

Качество не очень, для такого фильма главное зрелищность и качество картинки, Когда мутно и не четко удовольствие не то, так что подожду качества Лови бочку
[Профиль]  [ЛС] 

denisok-tula

Лоцман

Пост 12-Май-2018 23:16 (спустя 13 часов)

[Q] 

Такое нужно смотреть было только в 3д и только в ай макс имхо
[Профиль]  [ЛС] 

exelero07

Гроза морей

Пост 20-Июл-2018 22:07 (спустя 2 месяца 7 дней)

[Q] 

какой-то слишком мультяшный. от спилберга что-то стоящее ожидал
[Профиль]  [ЛС] 
Показать сообщения:    
Ответить на тему

Текущее время: Сегодня 18:39

Часовой пояс: GMT + 4



Вы не можете начинать темы
Вы не можете отвечать на сообщения
Вы не можете редактировать свои сообщения
Вы не можете удалять свои сообщения
Вы не можете голосовать в опросах
Вы не можете прикреплять файлы к сообщениям
Вы не можете скачивать файлы

Майнать ▼