Алоха / Aloha (Кэмерон Кроу / Cameron Crowe) [2015 г., драма, мелодрама, комедия, HDRip] Dub [iTunes]

Ответить на тему
 
Автор
Сообщение

Пост 21-Сен-2015 08:55

[Q] 

aleksey99

--Алоха / Aloha--«Sometimes you have to say goodbye before you can say hello»-- Производство: США / Columbia Pictures, Regency Enterprises, LStar Capital
Год выпуска: 2015 г.
Жанр: драма, мелодрама, комедия
Продолжительность: 01:44:38--Мировая премьера: 27 мая 2015--Перевод: Профессиональный (полное дублирование) [iTunes]--Режиссер: Кэмерон Кроу / Cameron Crowe--В ролях: Брэдли Купер, Эмма Стоун, Рэйчел Макадамс, Алек Болдуин, Билл Мюррей, Джон Красински, Дэнни МакБрайд, Билл Кэмп, Джейден Либерер, Даниэль Роуз Расселл, Ивана Миличевич--Описание: 37-летний дискредитированный американский консультант по оружию Брайн Джилкрест не нравится практически всем окружающим его людям. Его единственный друг — техник по имени Джереми — супер умный и хорошо осведомленный компьютерщик.
В ответ на агрессию со стороны Китая Джилкреста отправляют на бездействующую военную базу на Гавайях, чтобы оттуда он контролировал запуск современного спутника-шпиона. Это задание сведет его с девушкой по имени Трейси…-- --Качество видео: HDRip
Контейнер: AVI
Видео кодек: XviD
Аудио кодек: AC3
Видео: 720x384 (1.88:1), 23.976 fps, XviD build 50 ~1596 kbps avg, 0.24 bit/pixel
Аудио: 48 kHz, AC3 Dolby Digital, 3/2 (L,C,R,l,r) + LFE ch, ~384 kbps
Cубтитры: отсутствуют
Общее
Полное имя : F:\Torent 2\Aloha.2015.D.HDRip.1.46GB.avi
Формат : AVI
Формат/Информация : Audio Video Interleave
Размер файла : 1,45 Гбайт
Продолжительность : 1 ч. 44 м.
Общий поток : 1990 Кбит/сек
Программа кодирования : VirtualDubMod 1.5.10.3 | www.virtualdub-fr.org || (build 2550/release)
Библиотека кодирования : VirtualDubMod build 2550/release
Видео
Идентификатор : 0
Формат : MPEG-4 Visual
Профиль формата : Advanced [email protected]
Параметр BVOP формата : 2
Параметр QPel формата : Нет
Параметр GMC формата : Без точки перехода
Параметр матрицы формата : Default (MPEG)
Идентификатор кодека : XVID
Идентификатор кодека/Подсказка : XviD
Продолжительность : 1 ч. 44 м.
Битрейт : 1597 Кбит/сек
Ширина : 720 пикселей
Высота : 384 пикселя
Соотношение сторон : 1,85:1
Частота кадров : 23,976 кадра/сек
Цветовое пространство : YUV
Субдискретизация насыщенности : 4:2:0
Битовая глубина : 8 бит
Тип развёртки : Прогрессивная
Метод сжатия : С потерями
Бит/(Пиксели*Кадры) : 0.241
Размер потока : 1,17 Гбайт (80%)
Библиотека кодирования : XviD 1.2.1 (UTC 2008-12-04)
Аудио
Идентификатор : 1
Формат : AC-3
Формат/Информация : Audio Coding 3
Расширение режима : CM (complete main)
Параметр Endianness формата : Big
Идентификатор кодека : 2000
Продолжительность : 1 ч. 44 м.
Вид битрейта : Постоянный
Битрейт : 384 Кбит/сек
Каналы : 6 каналов
Расположение каналов : Front: L C R, Side: L R, LFE
Частота : 48,0 КГц
Метод сжатия : С потерями
Размер потока : 287 Мбайт (19%)
Выравнивание : Разделение по промежуткам
Продолжительность промежутка : 42 мс. (1,00 видеокадр)
Время предзагрузки промежутка : 500 мс.
Трейлер
Download / Скачать

Хотите скачать бесплатно? Зарегистрируйтесь на сайте (ссылка на регистрацию). Pirat.ca - самый быстрый торрент трекер в рунете!

Как скачивать  ·   Что такое торрент  ·   Рейтинг и ограничения

[email protected]

Легенда

Пост 22-Сен-2015 14:56 (спустя 1 день 6 часов)

[Q] 

Спасибо!!! .
[Профиль]  [ЛС] 

Су-34

Гроза морей

15258

Пост 22-Сен-2015 18:37 (спустя 3 часа)

[Q] 

На любителя Спасибо!!! ерунда
[Профиль]  [ЛС] 

Dead Mazay

Флибустьер

Пост 03-Окт-2015 11:22 (спустя 10 дней)

[Q] 

Ня!
[Профиль]  [ЛС] 

Су-34

Гроза морей

15258

Пост 06-Окт-2015 22:26 (спустя 3 дня)

[Q] 

703734Алоха
ТИМОХА!! ХА! ХЗ!!!
[Профиль]  [ЛС] 

platon18

Гроза морей

Пост 11-Окт-2015 13:12 (спустя 4 дня)

[Q] 

отзывы вроде хорошие, надо глянуть
[Профиль]  [ЛС] 

Ishtori

Флибустьер

Пост 03-Мар-2016 20:38 (спустя 4 месяца 23 дня)

[Q] 

cпасибо за раздачу! :)
[Профиль]  [ЛС] 

tse

Корсар

Пост 04-Апр-2018 19:09 (спустя 2 года 1 месяц)

[Q] 

Годно, мыльно на расслабоне глянуть. Лови бочку Автору респект!!!
[Профиль]  [ЛС] 

Су-34

Гроза морей

15258

Пост 05-Апр-2018 14:27 (спустя 19 часов)

[Q] 

Драмы, мелодрамы это все для баб!
[Профиль]  [ЛС] 

левка

Корсар

Пост 28-Апр-2018 21:37 (спустя 23 дня)

[Q] 

aleksey99, Лови бочку
[Профиль]  [ЛС] 

dl22

Морской Волк

Пост 13-Май-2018 17:19 (спустя 14 дней)

[Q] 

!COOL!
[Профиль]  [ЛС] 
Показать сообщения:    
Ответить на тему

Текущее время: Сегодня 03:50

Часовой пояс: GMT + 4



Вы не можете начинать темы
Вы не можете отвечать на сообщения
Вы не можете редактировать свои сообщения
Вы не можете удалять свои сообщения
Вы не можете голосовать в опросах
Вы не можете прикреплять файлы к сообщениям
Вы не можете скачивать файлы

Майнать ▼