Калифорникейшн / Блудливая Калифорния / Californication / Сезон: 1-6 / Серии: 1-72 (Дэвид Фон Энкен / David Von Ancken, Адам Бернштейн / Adam Bernstein) [2007 - 2013 г.г., комедия, драма, DVDRip, WEB-DLRip, HDTVRip] MVO (LostFilm)

Ответить на тему
 
Автор
Сообщение

Пост 15-Янв-2014 21:46

[Q] 

Bile

- -Калифорникейшн / Блудливая Калифорния / CalifornicationСезон: 1-6- Производство: США,Showtime
Жанр: комедия, драма
Год выпуска: 2007 - 2013 г.г.
Продолжительность: ~00:28:00
Перевод: Профессиональный (многоголосый закадровый) [LostFilm]
Режиссер: Дэвид Фон Энкен/David Von Ancken, Адам Бернштейн/Adam Bernstein-В ролях: Дэвид Духовны (Хэнк Муди),Наташа Макэлхон (Карен ван дер Бик),Мэйделин Мартин (Бекка Муди),Эван Хэндлер (Чарли Ранкл),Памела Эдлон (Марси Ранкл),Мэйделин Зима (Мия Льюис (Кросс))-Описание: Известный писатель Хэнк Муди переживает творческий и личностный кризис. За пять лет он не написал ни строчки, лишился женщины, которую любил, и окончательно погряз в пороках: марихуане, алкоголе и связях-однодневках. Но он не теряет надежды вновь обрести потерянную семью и вернуться к творчеству.-
Качество: DVDrip
Формат: AVI
Видео кодек: XviD
Аудио кодек: MP3
Video: 672x384 (1.75:1), 23.976 fps, XviD MPEG-4 ~1039 kbps avg, 0.17 bit/pixel
Audio: 48 kHz, MPEG Layer 3, 2 ch, ~128.00 kbps avg
Общее
Полное имя : D:\Californication[pirat.ca]\Californication 1 - LostFilm.TV\Californication.S01E01.rus.LostFilm.TV.avi
Формат : AVI
Формат/Информация : Audio Video Interleave
Размер файла : 278 Мбайт
Продолжительность : 33 м.
Общий поток : 1177 Кбит/сек
Программа кодирования : Nandub v1.0rc2
Библиотека кодирования : VirtualDub build 32817/release
Видео
Идентификатор : 0
Формат : MPEG-4 Visual
Профиль формата : Advanced [email protected]
Параметр BVOP формата : 2
Параметр QPel формата : Нет
Параметр GMC формата : Без точки перехода
Параметр матрицы формата : Default (MPEG)
Режим смешивания : Сжатый битовый поток
Идентификатор кодека : XVID
Идентификатор кодека/Подсказка : XviD
Продолжительность : 33 м.
Битрейт : 1040 Кбит/сек
Ширина : 672 пикселя
Высота : 384 пикселя
Соотношение сторон : 16:9
Частота кадров : 23,976 кадра/сек
Частота кадров в оригинале : 25,000 кадров/сек
Цветовое пространство : YUV
Субдискретизация насыщенности : 4:2:0
Битовая глубина : 8 бит
Тип развёртки : Прогрессивная
Метод сжатия : С потерями
Бит/(Пиксели*Кадры) : 0.168
Размер потока : 246 Мбайт (88%)
Библиотека кодирования : XviD 1.2.0SMP (UTC 2006-01-08)
Аудио
Идентификатор : 1
Формат : MPEG Audio
Версия формата : Version 1
Профиль формата : Layer 3
Идентификатор кодека : 55
Идентификатор кодека/Подсказка : MP3
Продолжительность : 33 м.
Вид битрейта : Постоянный
Битрейт : 128 Кбит/сек
Каналы : 2 канала
Частота : 48,0 КГц
Метод сжатия : С потерями
Задержка видео : 900 мс.
Размер потока : 30,2 Мбайт (11%)
Выравнивание : Разделение по промежуткам
Продолжительность промежутка : 42 мс. (1,00 видеокадр)
Время предзагрузки промежутка : 500 мс.
-
Качество: DVDrip
Формат: AVI
Видео кодек: XviD
Аудио кодек: MP3
Video: Video: 624x352 (1.77:1), 23.976 fps, XviD build 50 ~1467 kbps avg, 0.28 bit/pixel
Audio: 48 kHz, MPEG Layer 3, 2 ch, ~128.00 kbps avg
Общее
Полное имя : D:\Californication[pirat.ca]\Californication 2 - LostFilm.TV\Californication.S02E01.rus.LostFilm.TV.avi
Формат : AVI
Формат/Информация : Audio Video Interleave
Размер файла : 328 Мбайт
Продолжительность : 28 м.
Общий поток : 1609 Кбит/сек
Программа кодирования : Nandub v1.0rc2
Библиотека кодирования : Nandub build 1853/release
Видео
Идентификатор : 0
Формат : MPEG-4 Visual
Профиль формата : Advanced [email protected]
Параметр BVOP формата : Нет
Параметр QPel формата : Нет
Параметр GMC формата : Без точки перехода
Параметр матрицы формата : Выборочная
Идентификатор кодека : XVID
Идентификатор кодека/Подсказка : XviD
Продолжительность : 28 м.
Битрейт : 1468 Кбит/сек
Ширина : 624 пикселя
Высота : 352 пикселя
Соотношение сторон : 16:9
Частота кадров : 23,976 кадра/сек
Цветовое пространство : YUV
Субдискретизация насыщенности : 4:2:0
Битовая глубина : 8 бит
Тип развёртки : Прогрессивная
Метод сжатия : С потерями
Бит/(Пиксели*Кадры) : 0.279
Размер потока : 299 Мбайт (91%)
Библиотека кодирования : XviD 1.2.1 (UTC 2008-12-04)
Аудио
Идентификатор : 1
Формат : MPEG Audio
Версия формата : Version 1
Профиль формата : Layer 3
Режим : Joint stereo
Расширение режима : MS Stereo
Идентификатор кодека : 55
Идентификатор кодека/Подсказка : MP3
Продолжительность : 28 м.
Вид битрейта : Постоянный
Битрейт : 128 Кбит/сек
Каналы : 2 канала
Частота : 48,0 КГц
Метод сжатия : С потерями
Размер потока : 26,1 Мбайт (8%)
Выравнивание : Соединение по промежуткам
Продолжительность промежутка : 24 мс. (0,58 видеокадр)
Время предзагрузки промежутка : 480 мс.
-
Качество: DVDrip
Формат: AVI
Видео кодек: XviD
Аудио кодек: MP3
Video: 624x352 (1.77:1), 23.976 fps, XviD build 50 ~1430 kbps avg, 0.27 bit/pixel
Audio: 48 kHz, MPEG Layer 3, 2 ch, ~128.00 kbps avg
Общее
Полное имя : D:\Californication[pirat.ca]\Californication 3 - LostFilm.TV\Californication.S03E01.rus.LostFilm.TV.avi
Формат : AVI
Формат/Информация : Audio Video Interleave
Размер файла : 324 Мбайт
Продолжительность : 28 м.
Общий поток : 1572 Кбит/сек
Программа кодирования : Nandub v1.0rc2
Библиотека кодирования : Nandub build 1853/release
Видео
Идентификатор : 0
Формат : MPEG-4 Visual
Профиль формата : Advanced [email protected]
Параметр BVOP формата : Нет
Параметр QPel формата : Нет
Параметр GMC формата : Без точки перехода
Параметр матрицы формата : Выборочная
Идентификатор кодека : XVID
Идентификатор кодека/Подсказка : XviD
Продолжительность : 28 м.
Битрейт : 1431 Кбит/сек
Ширина : 624 пикселя
Высота : 352 пикселя
Соотношение сторон : 16:9
Частота кадров : 23,976 кадра/сек
Цветовое пространство : YUV
Субдискретизация насыщенности : 4:2:0
Битовая глубина : 8 бит
Тип развёртки : Прогрессивная
Метод сжатия : С потерями
Бит/(Пиксели*Кадры) : 0.272
Размер потока : 295 Мбайт (91%)
Библиотека кодирования : XviD 1.2.1 (UTC 2008-12-04)
Аудио
Идентификатор : 1
Формат : MPEG Audio
Версия формата : Version 1
Профиль формата : Layer 3
Режим : Joint stereo
Расширение режима : MS Stereo
Идентификатор кодека : 55
Идентификатор кодека/Подсказка : MP3
Продолжительность : 28 м.
Вид битрейта : Постоянный
Битрейт : 128 Кбит/сек
Каналы : 2 канала
Частота : 48,0 КГц
Метод сжатия : С потерями
Размер потока : 26,4 Мбайт (8%)
Выравнивание : Соединение по промежуткам
Продолжительность промежутка : 24 мс. (0,58 видеокадр)
Время предзагрузки промежутка : 480 мс.
-
Качество: WEB-DLRip
Формат: AVI
Видео кодек: XviD
Аудио кодек: MP3
Video: 624x352 (1.77:1), 23.976 fps, XviD build 50 ~1433 kbps avg, 0.27 bit/pixel
Audio: 48 kHz, MPEG Layer 3, 2 ch, ~128.00 kbps avg
Общее
Полное имя : D:\Californication[pirat.ca]\Californication 4 - LostFilm.TV\Californication.S04E01.rus.LostFilm.TV.avi
Формат : AVI
Формат/Информация : Audio Video Interleave
Размер файла : 328 Мбайт
Продолжительность : 29 м.
Общий поток : 1575 Кбит/сек
Программа кодирования : Nandub v1.0rc2
Библиотека кодирования : Nandub build 1853/release
Видео
Идентификатор : 0
Формат : MPEG-4 Visual
Профиль формата : Advanced [email protected]
Параметр BVOP формата : Нет
Параметр QPel формата : Нет
Параметр GMC формата : Без точки перехода
Параметр матрицы формата : Выборочная
Идентификатор кодека : XVID
Идентификатор кодека/Подсказка : XviD
Продолжительность : 29 м.
Битрейт : 1435 Кбит/сек
Ширина : 624 пикселя
Высота : 352 пикселя
Соотношение сторон : 16:9
Частота кадров : 23,976 кадра/сек
Цветовое пространство : YUV
Субдискретизация насыщенности : 4:2:0
Битовая глубина : 8 бит
Тип развёртки : Прогрессивная
Метод сжатия : С потерями
Бит/(Пиксели*Кадры) : 0.272
Размер потока : 299 Мбайт (91%)
Библиотека кодирования : XviD 1.2.1 (UTC 2008-12-04)
Аудио
Идентификатор : 1
Формат : MPEG Audio
Версия формата : Version 1
Профиль формата : Layer 3
Режим : Joint stereo
Расширение режима : MS Stereo
Идентификатор кодека : 55
Идентификатор кодека/Подсказка : MP3
Продолжительность : 29 м.
Вид битрейта : Постоянный
Битрейт : 128 Кбит/сек
Каналы : 2 канала
Частота : 48,0 КГц
Метод сжатия : С потерями
Размер потока : 26,7 Мбайт (8%)
Выравнивание : Соединение по промежуткам
Продолжительность промежутка : 24 мс. (0,58 видеокадр)
Время предзагрузки промежутка : 480 мс.
-
Качество: WEB-DLRip
Формат: AVI
Видео кодек: XviD
Аудио кодек: MP3
Video: 720x400 (1.80:1), 23.976 fps, XviD MPEG-4 ~1586 kbps avg, 0.23 bit/pixel
Audio: 48 kHz, MPEG Layer 3, 2 ch, ~128.00 kbps avg
Общее
Полное имя : D:\Californication[pirat.ca]\Californication 5 - LostFilm.TV\Californication.S05E01.rus.LostFilm.TV.avi
Формат : AVI
Формат/Информация : Audio Video Interleave
Размер файла : 366 Мбайт
Продолжительность : 29 м.
Общий поток : 1728 Кбит/сек
Программа кодирования : Nandub v1.0rc2
Библиотека кодирования : Nandub build 1853/release
Видео
Идентификатор : 0
Формат : MPEG-4 Visual
Профиль формата : [email protected]
Параметр BVOP формата : Нет
Параметр QPel формата : Нет
Параметр GMC формата : Без точки перехода
Параметр матрицы формата : Default (H.263)
Идентификатор кодека : XVID
Идентификатор кодека/Подсказка : XviD
Продолжительность : 29 м.
Битрейт : 1587 Кбит/сек
Ширина : 720 пикселей
Высота : 400 пикселей
Соотношение сторон : 16:9
Частота кадров : 23,976 кадра/сек
Цветовое пространство : YUV
Субдискретизация насыщенности : 4:2:0
Битовая глубина : 8 бит
Тип развёртки : Прогрессивная
Метод сжатия : С потерями
Бит/(Пиксели*Кадры) : 0.230
Размер потока : 336 Мбайт (92%)
Библиотека кодирования : XviD 1.2.1 (UTC 2008-12-04)
Аудио
Идентификатор : 1
Формат : MPEG Audio
Версия формата : Version 1
Профиль формата : Layer 3
Режим : Joint stereo
Расширение режима : MS Stereo
Идентификатор кодека : 55
Идентификатор кодека/Подсказка : MP3
Продолжительность : 29 м.
Вид битрейта : Постоянный
Битрейт : 128 Кбит/сек
Каналы : 2 канала
Частота : 48,0 КГц
Метод сжатия : С потерями
Размер потока : 27,1 Мбайт (7%)
Выравнивание : Соединение по промежуткам
Продолжительность промежутка : 24 мс. (0,58 видеокадр)
Время предзагрузки промежутка : 480 мс.
-
Качество: HDTVRip
Формат: AVI
Видео кодек: XviD
Аудио кодек: MP3
Video: 720x400 (1.80:1), 23.976 fps, XviD MPEG-4 ~1255 kbps avg, 0.18 bit/pixel
Audio: 48 kHz, MPEG Layer 3, 2 ch, ~187.98 kbps avg
Общее
Полное имя : D:\Californication[pirat.ca]\Californication 6 - LostFilm.TV\Californication.S06E01.rus.LostFilm.TV.avi
Формат : AVI
Формат/Информация : Audio Video Interleave
Размер файла : 304 Мбайт
Продолжительность : 29 м.
Режим общего битрейта : Переменный
Общий поток : 1457 Кбит/сек
Программа кодирования : Nandub v1.0rc2
Библиотека кодирования : Nandub build 1853/release
Видео
Идентификатор : 0
Формат : MPEG-4 Visual
Профиль формата : [email protected]
Параметр BVOP формата : Нет
Параметр QPel формата : Нет
Параметр GMC формата : Без точки перехода
Параметр матрицы формата : Default (H.263)
Идентификатор кодека : XVID
Идентификатор кодека/Подсказка : XviD
Продолжительность : 29 м.
Битрейт : 1257 Кбит/сек
Ширина : 720 пикселей
Высота : 400 пикселей
Соотношение сторон : 16:9
Частота кадров : 23,976 кадра/сек
Цветовое пространство : YUV
Субдискретизация насыщенности : 4:2:0
Битовая глубина : 8 бит
Тип развёртки : Прогрессивная
Метод сжатия : С потерями
Бит/(Пиксели*Кадры) : 0.182
Размер потока : 262 Мбайт (86%)
Библиотека кодирования : XviD 1.2.1 (UTC 2008-12-04)
Аудио
Идентификатор : 1
Формат : MPEG Audio
Версия формата : Version 1
Профиль формата : Layer 3
Режим : Joint stereo
Расширение режима : MS Stereo
Идентификатор кодека : 55
Идентификатор кодека/Подсказка : MP3
Продолжительность : 29 м.
Вид битрейта : Переменный
Битрейт : 192 Кбит/сек
Каналы : 2 канала
Частота : 48,0 КГц
Метод сжатия : С потерями
Размер потока : 39,3 Мбайт (13%)
Выравнивание : Соединение по промежуткам
Продолжительность промежутка : 24 мс. (0,58 видеокадр)
Время предзагрузки промежутка : 484 мс.
Библиотека кодирования : LAME3.97b
Настройки программы : -m j -V 4 -q 3 -lowpass 18.6 --abr 192
Download / Скачать

Хотите скачать бесплатно? Зарегистрируйтесь на сайте (ссылка на регистрацию). Pirat.ca - самый быстрый торрент трекер в рунете!

Как скачивать  ·   Что такое торрент  ·   Рейтинг и ограничения

Пост 15-Янв-2014 23:40 (спустя 1 час 53 минуты)

Топик был перенесен из форума Зарубежные сериалы (Трюм) в форум Зарубежные сериалы
erchine
 

poisk91

Штурман

Пост 18-Янв-2014 21:26 (спустя 2 дня 23 часа)

[Q] 

СПАСИБО
ХОРОШИЙ СЕРИАЛ
[Профиль]  [ЛС] 

viktor41

Морской Волк

Пост 21-Мар-2014 18:24 (спустя 2 месяца 2 дня)

[Q] 

Bile, Спасибочки за классный сериал ! Супер! Автору респект!!!
[Профиль]  [ЛС] 

Гатар

Морской Волк

131

Пост 06-Июн-2014 11:46 (спустя 2 месяца 15 дней)

[Q] 

Помогу с раздачей.
[Профиль]  [ЛС] 

мек

Морской Волк

Пост 30-Июн-2014 13:43 (спустя 24 дня)

[Q] 

Дайте скорости плиз Кто здеся?
[Профиль]  [ЛС] 

s_s

Гроза морей

Пост 27-Июл-2014 19:44 (спустя 27 дней)

[Q] 

закончился, теперь можно и посмотреть, спасибо:)

_________________
в себе самом добра со злом
[Профиль]  [ЛС] 

Sakoru

Корсар

Пост 23-Авг-2014 12:43 (спустя 26 дней)

[Q] 

Сериал великолепный!

_________________
[Профиль]  [ЛС] 

Андря

8619

Пост 20-Сен-2014 02:21 (спустя 27 дней)

[Q] 

смотреть обязательно

_________________
Като Тешекика
[Профиль]  [ЛС] 

nerotyumen

Лоцман

Пост 04-Фев-2015 23:00 (спустя 4 месяца 14 дней)

[Q] 

скорости друзья!!!
надо срочно посмотреть!
[Профиль]  [ЛС] 

KAPUT

Штурман

Пост 27-Мар-2015 23:52 (спустя 1 месяц 23 дня)

[Q] 

раздаю... Муди красафчик но жалко его иногда ппц...
[Профиль]  [ЛС] 

Angel_XP

Морской Волк

Пост 30-Июн-2016 12:04 (спустя 1 год 3 месяца)

[Q] 

KAPUT, на счет Муди, согласен на все 100 Одобрямс!
[Профиль]  [ЛС] 

andrey-34rus

Корсар

Пост 13-Янв-2017 15:32 (спустя 6 месяцев 13 дней)

[Q] 

Пошловат, но, несоменно, хорош!
[Профиль]  [ЛС] 

hooligan37

Морской Волк

Пост 13-Фев-2017 10:24 (спустя 30 дней)

[Q] 

Отличный сериал)))
спасибо за раздачу!)) Автору респект!!!
[Профиль]  [ЛС] 

Marsel34

Лоцман

25

Пост 15-Май-2018 12:07 (спустя 1 год 3 месяца)

[Q] 

любимый сериал anime7
[Профиль]  [ЛС] 
Показать сообщения:    
Ответить на тему

Текущее время: Сегодня 15:11

Часовой пояс: GMT + 4



Вы не можете начинать темы
Вы не можете отвечать на сообщения
Вы не можете редактировать свои сообщения
Вы не можете удалять свои сообщения
Вы не можете голосовать в опросах
Вы не можете прикреплять файлы к сообщениям
Вы не можете скачивать файлы

Майнать ▼