Жидкости во Вселенной / The Universe. Liquid Universe (Savas Georgalis) [2009 г., Документальный, научно-популярный, HDRip] VO

Ответить на тему
 
Автор
Сообщение

Пост 26-Янв-2012 21:30

[Q] 

UcrusPazzo

Жидкости во Вселенной / The Universe. Liquid Universe -Год выпуска: 2009
Производство: США
Жанр: Документальный, научно-популярный
Продолжительность серии: 00:45:01
Перевод: Любительский (одноголосый, закадровый)
Автор(ы) перевода: ua220
Озвучка: Slavnus Spacedust
Субтитры: отсутствуют-Режиссер: Savas Georgalis-Описание: Они имеют странную форму и расположены в странных мирах.
Они есть в нас самих.
Новые открытия изменили наши знания о булькающей материи, - нашей жидкости Вселенной.-Источник/Качество: HDRip
Формат: AVI
Видео кодек: XviD
Аудио кодек: AC3
Видео: 704x400 (1.76:1), 23.976 fps, XviD build 50 ~2045 kbps avg, 0.30 bit/pixel
Аудио: 48 kHz, AC3 Dolby Digital, 3/0 (L,C,R) ch, ~256 kbps
Общее
Формат : AVI
Формат/Информация : Audio Video Interleave
Размер файла : 744 Мбайт
Продолжительность : 45 м.
Общий поток : 2311 Кбит/сек
Название фильма : Жидкости во Вселенной / The Universe. Liquid Universe 2009
Программа кодирования : VirtualDubMod 1.5.10.2 (build 2540/release)
Видео
Идентификатор : 0
Формат : MPEG-4 Visual
Профиль формата : Advanced [email protected]
Параметр BVOP формата : 1
Параметр QPel формата : Нет
Параметр GMC формата : Без точки перехода
Параметр матрицы формата : Выборочная
Идентификатор кодека : XVID
Идентификатор кодека/Подсказка : XviD
Продолжительность : 45 м.
Битрейт : 2045 Кбит/сек
Ширина : 704 пикселя
Высота : 400 пикселей
Соотношение сторон : 16:9
Частота кадров : 23,976 кадра/сек
Цветовое пространство : YUV
Субдискретизация насыщенности : 4:2:0
Битовая глубина : 8 бит
Тип развёртки : Прогрессивная
Метод сжатия : С потерями
Бит/(Пиксели*Кадры) : 0.303
Размер потока : 658 Мбайт (89%)
Библиотека кодирования : XviD 1.2.1 (UTC 2008-12-04)
Аудио
Идентификатор : 1
Формат : AC-3
Формат/Информация : Audio Coding 3
Расширение режима : CM (complete main)
Идентификатор кодека : 2000
Продолжительность : 45 м.
Вид битрейта : Постоянный
Битрейт : 256 Кбит/сек
Каналы : 3 канала
Расположение каналов : Front: L C R
Частота : 48,0 КГц
Битовая глубина : 16 бит
Метод сжатия : С потерями
Размер потока : 82,4 Мбайт (11%)
Выравнивание : Разделение по промежуткам
Продолжительность промежутка : 42 мс. (1,00 видеокадр)
Время предзагрузки промежутка : 500 мс.
Download / Скачать

Хотите скачать бесплатно? Зарегистрируйтесь на сайте (ссылка на регистрацию). Pirat.ca - самый быстрый торрент трекер в рунете!

Как скачивать  ·   Что такое торрент  ·   Рейтинг и ограничения

ksg111ban

Гроза морей

Пост 31-Янв-2012 18:43 (спустя 4 дня)

[Q] 

ОЧЕНЬ ПОЗНАВАТЕЛЬНО.

_________________
[Профиль]  [ЛС] 

ParMarVarKar

Шкипер

Пост 01-Фев-2012 17:44 (спустя 23 часа)

[Q] 

[Профиль]  [ЛС] 

ily

Шкипер

Пост 18-Сен-2012 16:41 (спустя 7 месяцев 16 дней)

[Q] 

[Профиль]  [ЛС] 

lo.oktosky

Морской Волк

Пост 03-Апр-2014 13:31 (спустя 1 год 6 месяцев)

[Q] 

и правда познавательно Спасибо!!!
только перевод хромает...
[Профиль]  [ЛС] 

zvezda_2s

Флибустьер

Пост 02-Фев-2018 17:18 (спустя 3 года 9 месяцев)

[Q] 

Что за тишина в эфире? Никто не видел? Один в поле воин.
[Профиль]  [ЛС] 

dl22

Морской Волк

Пост 15-Май-2018 14:48 (спустя 3 месяца 12 дней)

[Q] 

Норм, но перевод гэ. Уснул.... Раздающему респект!
[Профиль]  [ЛС] 
Показать сообщения:    
Ответить на тему

Текущее время: Сегодня 08:01

Часовой пояс: GMT + 4



Вы не можете начинать темы
Вы не можете отвечать на сообщения
Вы не можете редактировать свои сообщения
Вы не можете удалять свои сообщения
Вы не можете голосовать в опросах
Вы не можете прикреплять файлы к сообщениям
Вы не можете скачивать файлы

Майнать ▼