Зови меня своим именем / Call Me by Your Name (Лука Гуаданьино / Luca Guadagnino) [2017 г., драма, мелодрама, BDRip, 720p] Dub [iTunes] + MVO [HDRezka Studio] + Original (Eng) + Subs (Rus, Ukr, Eng)

Ответить на тему
 
Автор
Сообщение

Пост 02-Май-2018 22:56

[Q] 

moscowpan

Гроза морей

-Зови меня своим именем / Call Me by Your Name-«Is it better to speak or die?»- Производство: Италия, Франция, Бразилия, США | Frenesy Film Company, La Cinéfacture
Год выпуска: 2017 г.
Жанр: драма, мелодрама
Продолжительность: 02:12:00
Мировая премьера: 22 января 2017
Российская премьера: 20 октября 2017
Перевод: Профессиональный (полное дублирование) [ iTunes | RUS]
Перевод 2: Профессиональный (многоголосый, закадровый) [HDRezka Studio | RUS]
Оригинальный аудиопоток: английский
Режиссёр: Лука Гуаданьино / Luca Guadagnino-В ролях: Арми Хаммер, Тимоти Шаламе, Майкл Стулбарг, Амира Казар, Эстер Гаррель, Виктуар Ду Бойс, Ванда Каприоло, Елена Буччи-Описание: 1983 год, Италия. Элио семнадцать, и это лето он проводит на вилле у родителей, американского профессора и переводчицы-итальянки. Юноша c детства начитанный и любознательный, Элио разбавляет обычные летние занятия вроде купания в море и ленивого флирта с подругой Марцией чтением и транскрибированием классической музыки. В один прекрасный день, впрочем, безмятежность летнего отдыха нарушает приезд Оливера — молодого американского учёного, ассистента отца Элио.-
Качество видео: BDRip
Контейнер: MKV
Стандарт разрешения: 720p
Видео кодек: MPEG4 AVC
Аудио кодек: AC3
Видео: MPEG-4 AVC, 1280x692, 7885 Kbit/s, 23.976 fps
Аудио: 48 kHz, AC3, 5.1, 384 Kbps | iTunes | RUS
Аудио #2: 48 kHz, AC3, 2.0, 192 Kbps | HDRezka Studio | RUS
Аудио #3: 48 kHz, AC3, 5.1, 640 Kbps | Оригинал | ENG
Cубтитры: Русские (full), украинские (full), английские
General
Unique ID : 166149913044862947202903842558316472086 (0x7CFF4F2CE9520426A5ACC8F97A1D6716)
Complete name : C:Video111Call.Me.by.Your.Name.2017.BDRip.720p.ExKinoRay.mkv
Format : Matroska
Format version : Version 4 / Version 2
File size : 8.39 GiB
Duration : 2 h 12 min
Overall bit rate : 9 104 kb/s
Movie name : Call Me by Your Name 2017 from ExKinoRay
Encoded date : UTC 2018-05-02 13:13:35
Writing application : mkvmerge v22.0.0 ('At The End Of The World') 64-bit
Writing library : libebml v1.3.5 + libmatroska v1.4.8
Video
ID : 1
Format : AVC
Format/Info : Advanced Video Codec
Format profile : [email protected]
Format settings : CABAC / 9 Ref Frames
Format settings, CABAC : Yes
Format settings, ReFrames : 9 frames
Codec ID : V_MPEG4/ISO/AVC
Duration : 2 h 12 min
Bit rate : 7 885 kb/s
Width : 1 280 pixels
Height : 692 pixels
Display aspect ratio : 1.85:1
Frame rate mode : Constant
Frame rate : 23.976 (24000/1001) FPS
Color space : YUV
Chroma subsampling : 4:2:0
Bit depth : 8 bits
Scan type : Progressive
Bits/(Pixel*Frame) : 0.371
Stream size : 7.27 GiB (87%)
Writing library : x264 core 142 r2431+42 c69a006 tMod [[email protected] X86_64]
Encoding settings : cabac=1 / ref=9 / deblock=1:-2:-2 / analyse=0x3:0x133 / me=umh / subme=11 / psy=1 / fade_compensate=0.00 / psy_rd=1.00:0.10 / mixed_ref=1 / me_range=32 / chroma_me=1 / trellis=2 / 8x8dct=1 / cqm=0 / deadzone=21,11 / fast_pskip=0 / chroma_qp_offset=-1 / threads=12 / lookahead_threads=3 / sliced_threads=0 / nr=0 / decimate=0 / interlaced=0 / bluray_compat=0 / constrained_intra=0 / fgo=0 / bframes=12 / b_pyramid=2 / b_adapt=2 / b_bias=0 / direct=3 / weightb=1 / open_gop=0 / weightp=2 / keyint=250 / keyint_min=23 / scenecut=40 / intra_refresh=0 / rc=crf / mbtree=0 / crf=17.0000 / qcomp=0.75 / qpmin=0:0:0 / qpmax=69:69:69 / qpstep=4 / ip_ratio=1.40 / pb_ratio=1.30 / aq=1:0.75 / aq-sensitivity=10.00 / aq-factor=1.00:1.00:1.00 / aq2=0 / aq3=0
Language : English
Default : Yes
Forced : No
Audio #1
ID : 2
Format : AC-3
Format/Info : Audio Coding 3
Codec ID : A_AC3
Duration : 2 h 11 min
Bit rate mode : Constant
Bit rate : 384 kb/s
Channel(s) : 6 channels
Channel positions : Front: L C R, Side: L R, LFE
Sampling rate : 48.0 kHz
Frame rate : 31.250 FPS (1536 SPF)
Bit depth : 16 bits
Compression mode : Lossy
Stream size : 363 MiB (4%)
Title : iTunes
Language : Russian
Service kind : Complete Main
Default : Yes
Forced : Yes
Audio #2
ID : 3
Format : AC-3
Format/Info : Audio Coding 3
Codec ID : A_AC3
Duration : 2 h 12 min
Bit rate mode : Constant
Bit rate : 192 kb/s
Channel(s) : 2 channels
Channel positions : Front: L R
Sampling rate : 48.0 kHz
Frame rate : 31.250 FPS (1536 SPF)
Bit depth : 16 bits
Compression mode : Lossy
Stream size : 181 MiB (2%)
Title : HDRezka
Language : Russian
Service kind : Complete Main
Default : No
Forced : No
Audio #3
ID : 4
Format : AC-3
Format/Info : Audio Coding 3
Codec ID : A_AC3
Duration : 2 h 12 min
Bit rate mode : Constant
Bit rate : 640 kb/s
Channel(s) : 6 channels
Channel positions : Front: L C R, Side: L R, LFE
Sampling rate : 48.0 kHz
Frame rate : 31.250 FPS (1536 SPF)
Bit depth : 16 bits
Compression mode : Lossy
Stream size : 604 MiB (7%)
Title : Original
Language : English
Service kind : Complete Main
Default : No
Forced : No
Text #1
ID : 5
Format : UTF-8
Codec ID : S_TEXT/UTF8
Codec ID/Info : UTF-8 Plain Text
Duration : 2 h 9 min
Bit rate : 50 b/s
Count of elements : 1103
Stream size : 48.1 KiB (0%)
Title : Full [iTunes]
Language : Russian
Default : No
Forced : No
Text #2
ID : 6
Format : UTF-8
Codec ID : S_TEXT/UTF8
Codec ID/Info : UTF-8 Plain Text
Duration : 2 h 9 min
Bit rate : 52 b/s
Count of elements : 1103
Stream size : 49.8 KiB (0%)
Title : Full [iTunes]
Language : Ukrainian
Default : No
Forced : No
Text #3
ID : 7
Format : UTF-8
Codec ID : S_TEXT/UTF8
Codec ID/Info : UTF-8 Plain Text
Duration : 2 h 8 min
Bit rate : 32 b/s
Count of elements : 1096
Stream size : 30.8 KiB (0%)
Title : Full
Language : English
Default : No
Forced : No
Text #4
ID : 8
Format : UTF-8
Codec ID : S_TEXT/UTF8
Codec ID/Info : UTF-8 Plain Text
Duration : 2 h 8 min
Bit rate : 39 b/s
Count of elements : 1354
Stream size : 37.3 KiB (0%)
Title : SDH
Language : English
Default : No
Forced : No
Menu
00:00:00.000 : en:00:00:00.000
00:07:29.574 : en:00:07:29.574
00:16:14.599 : en:00:16:14.599
00:24:56.495 : en:00:24:56.495
00:32:32.576 : en:00:32:32.576
00:42:17.034 : en:00:42:17.034
00:51:09.149 : en:00:51:09.149
01:00:13.652 : en:01:00:13.652
01:07:01.893 : en:01:07:01.893
01:16:50.272 : en:01:16:50.272
01:23:55.906 : en:01:23:55.906
01:31:20.975 : en:01:31:20.975
01:37:58.790 : en:01:37:58.790
01:46:57.494 : en:01:46:57.494
01:54:29.237 : en:01:54:29.237
02:02:29.551 : en:02:02:29.551
Download / Скачать

Хотите скачать бесплатно? Зарегистрируйтесь на сайте (ссылка на регистрацию). Pirat.ca - самый быстрый торрент трекер в рунете!

Как скачивать  ·   Что такое торрент  ·   Рейтинг и ограничения

moscowpan ®

Гроза морей

4200

Пост 04-Май-2018 12:14 (спустя 1 день 13 часов)

[Q] 

выложил, но сполерну сам, для тех кто по постеру не понял
немного противно даже от пидоросни с подростком при просмотре фильма

_________________
[Профиль]  [ЛС] 

Mustafa Sazont

Корсар

Пост 16-Май-2018 09:40 (спустя 11 дней)

[Q] 

Производство: Италия, Франция, Бразилия, США.
Куда катится мир? Они что там все "пробитые"?
[Профиль]  [ЛС] 
Показать сообщения:    
Ответить на тему

Текущее время: Сегодня 15:52

Часовой пояс: GMT + 4



Вы не можете начинать темы
Вы не можете отвечать на сообщения
Вы не можете редактировать свои сообщения
Вы не можете удалять свои сообщения
Вы не можете голосовать в опросах
Вы не можете прикреплять файлы к сообщениям
Вы не можете скачивать файлы

Майнать ▼