Новобранцы идут на войну / Les bidasses s'en vont en guerre (Клод Зиди / Claude Zidi) [1974 г., комедия, DVDRip] Dub [студия им. Горького]

Ответить на тему
 
Автор
Сообщение

Пост 13-Июн-2016 21:51

[Q] 

somik

-Новобранцы идут на войну / Les bidasses s'en vont en guerre-- Производство: Франция, Италия, Германия (ФРГ), F.C.F., Films 7, Les Films Christian Fechner, ...
Год выпуска: 1974 г.
Жанр: комедия
Продолжительность: 01:23:26
Мировая премьера: 11 декабря 1974
Дата выхода DVD: 23 сентября 2010, «Cinema Prestige»
Перевод: Профессиональный (полное дублирование) [студия им. Горького]
Режиссер: Клод Зиди / Claude Zidi-В ролях: Жан-Ги Фешнер (Jean-Guy), Жерар Филипелли (Phil), Жерар Ринальди (Gérard), Жан Саррюс (Jean), Жак Сейлер (Sergent Bellec), Мариза Мерлини (Paulette Brugnon), Хайди Болен (La psychologue), Паоло Стоппа (Le colonel), Мириам Буайе, Бригитте Штайн, Пьер Гуальди (Le maire), Ален Пейсон (Le fiancé)
Дублёры: Владимир Носик (Jean-Guy), Александр Соловьев (Phil), Алексей Инжеватов (Gérard), Виктор Комиссаров (Jean), Николай Граббе (Sergent Bellec), Серафима Холина (Paulette Brugnon), Ирина Карташёва (La psychologue), Константин Тыртов (Le colonel)-Описание: етыре друга-балбеса отправляются в армию. Как и водится, их командир – зверь-сержант, больше всего ценящий в людях дисциплину. Поэтому армейская жизнь квартета складывается в основном из пребывания на гауптвахте и побегов оттуда. Некоторое разнообразие в «скучную» армейскую жизнь «Шарло» вносят армейские учения, во время которых действие комедии переносится на живописные просторы сельской Франции.Невероятно смешные приключения квартета `Шарло` (`Четыре мушкетера`, `Четверо против кардинала`) в комедии самого известного комедийного режиссера Франции, Клода Зиди...-
Качество видео: DVDRip
Контейнер: AVI
Видео кодек: XviD
Аудио кодек: AC3
Видео: 720x304 (2.37:1), 25 fps, XviD build 50 ~2079 kbps avg, 0.38 bit/pixel
Аудио: 48 kHz, AC3 Dolby Digital, 2/0 (L,R) ch, ~256 kbps
Cубтитры: отсутствуют
Фильм занимает 18-е место по посещаемости среди зарубежных лент в советском кинопрокате.
Любителям лёгкой весёлой комедии этот фильм понравится. Мне он нравится очень. Комедия построена на абсурде, шутках, нелепых ситуациях и множестве гэгов. Трудно найти в фильме хотя бы 2 минуты киношного времени, в течение которых не происходило бы что-нибудь забавное, смешное или абсурдное. Фильм 74го года, поэтому шуток ниже пояса и в целом чёрного или похабного юмора там нет. Это действительно весёлая комедия для всей семьи. Однако фильм противопоказано смотреть людям, которые привыкли искать в каждом фильме ляпы и ошибки. Такие зрители устанут записывать в блокнот и запоминать все несуразицы этой картины смело поставим её на полку с фильмами-антидепрессантами и приклеим бирочку с оценкой
10 из 10
Общее
Полное имя : D:\D\Шарло\Nowobrancy idut na voynu.DVDRip.[pirat.ca].avi
Формат : AVI
Формат/Информация : Audio Video Interleave
Размер файла : 1,37 Гбайт
Продолжительность : 1 ч. 23 м.
Общий поток : 2345 Кбит/сек
Название фильма : Nowobrancy idut na voynu.DVDRip.[pirat.ca]
Программа кодирования : VirtualDubMod 1.5.10.2 (build 2540/release)
Видео
Идентификатор : 0
Формат : MPEG-4 Visual
Профиль формата : Advanced [email protected]
Параметр BVOP формата : 1
Параметр QPel формата : Нет
Параметр GMC формата : Без точки перехода
Параметр матрицы формата : Default (MPEG)
Идентификатор кодека : XVID
Идентификатор кодека/Подсказка : XviD
Продолжительность : 1 ч. 23 м.
Битрейт : 2080 Кбит/сек
Ширина : 720 пикселей
Высота : 304 пикселя
Соотношение сторон : 2,35:1
Частота кадров : 25,000 кадров/сек
Цветовое пространство : YUV
Субдискретизация насыщенности : 4:2:0
Битовая глубина : 8 бит
Тип развёртки : Прогрессивная
Метод сжатия : С потерями
Бит/(Пиксели*Кадры) : 0.380
Размер потока : 1,21 Гбайт (89%)
Библиотека кодирования : XviD 1.2.1 (UTC 2008-12-04)
Аудио
Идентификатор : 1
Формат : AC-3
Формат/Информация : Audio Coding 3
Расширение режима : CM (complete main)
Параметр Endianness формата : Big
Идентификатор кодека : 2000
Продолжительность : 1 ч. 23 м.
Вид битрейта : Постоянный
Битрейт : 256 Кбит/сек
Каналы : 2 канала
Расположение каналов : Front: L R
Частота : 48,0 КГц
Частота кадров : 31,250 кадров/сек (1536 spf)
Метод сжатия : С потерями
Задержка видео : 100 мс.
Размер потока : 153 Мбайт (11%)
Выравнивание : Разделение по промежуткам
Продолжительность промежутка : 40 мс. (1,00 видеокадр)
Время предзагрузки промежутка : 500 мс.
Download / Скачать

Хотите скачать бесплатно? Зарегистрируйтесь на сайте (ссылка на регистрацию). Pirat.ca - самый быстрый торрент трекер в рунете!

Как скачивать  ·   Что такое торрент  ·   Рейтинг и ограничения

Пост 14-Июн-2016 09:56 (спустя 12 часов)

Топик был перенесен из форума Зарубежное Кино (Трюм) в форум Основной кинофонд (1970 г. - 1999 г.)
Андря
 

semageniy

Штурман

Пост 14-Июн-2016 16:50 (спустя 18 часов)

[Q] 

хороший фильм
[Профиль]  [ЛС] 

Mustafa Sazont

Корсар

Пост 16-Май-2018 15:43 (спустя 1 год 11 месяцев)

[Q] 

Ностальгия! В детстве в летнем кинотеатре на заборе и деревьях сидели, смотрели по несколько раз. На те времена комедия была улётная.
[Профиль]  [ЛС] 
Показать сообщения:    
Ответить на тему

Текущее время: Сегодня 19:39

Часовой пояс: GMT + 4



Вы не можете начинать темы
Вы не можете отвечать на сообщения
Вы не можете редактировать свои сообщения
Вы не можете удалять свои сообщения
Вы не можете голосовать в опросах
Вы не можете прикреплять файлы к сообщениям
Вы не можете скачивать файлы

Майнать ▼