Четверо против кардинала / Les Charlots en folie: À nous quatre Cardinal! (Андре Юнебель / Andre Hunebelle) [1974 г., комедия, приключения, DVDRip] Dub [Киностудия имени М. Горького]

Ответить на тему
 
Автор
Сообщение

Пост 14-Июн-2016 17:28

[Q] 

somik

-Четверо против кардинала / Les Charlots en folie: À nous quatre Cardinal!-- Производство: Франция, Les Films Christian Fechner, Renn Productions
Год выпуска: 1974 г.
Жанр: комедия, приключения
Продолжительность: 01:35:17
Мировая премьера: 30 августа 1974
Дата выхода DVD: 9 сентября 2010, «Cinema Prestige»
Перевод: Профессиональный (полное дублирование) [Киностудия имени М. Горького]
Режиссер: Андре Юнебель / Andre Hunebelle-В ролях: Жерар Ринальди (Planchet), Жерар Филипелли (Mousqueton), Жан Саррюс (Bazin), Жан-Ги Фешнер (Grimaud), Джозефин Чаплин (Constance), Даниэль Секкальди (Louis XIII / Le roi), Поль Пребуа (Le père Joseph), Бернард Хэллер (Richelieu), Карин Петерсен (Milady), Катрин Журдан (La reine), Жак Сейлер (Rochefort), Jean Valmont (D'Artagnan)
Дублёры: Рудольф Панков, Алексей Панькин, Герман Качин, Алексей Золотницкий, Ольга Григорьева, Артем Карапетян, Вадим Спиридонов, Ян Янакиев, Ольга Гаспарова, Эдуард Изотов, Людмила Карауш, Александр Белявский-Описание: Слуги помогают своим хозяевам вернуть королеве алмазные подвески и посрамить кардинала Ришелье.-
Качество видео: DVDRip
Контейнер: AVI
Видео кодек: XviD
Аудио кодек: AC3
Видео: 704x400 (1.76:1), 25 fps, XviD build 50 ~1987 kbps avg, 0.28 bit/pixel
Аудио: 48 kHz, AC3 Dolby Digital, 2/0 (L,R) ch, ~192 kbps
Cубтитры: отсутствуют
Общее
Полное имя : D:\D\Шарло\Charlots\4 CHARLO protiv Kardinala.DVDRip.[pirat.ca].avi
Формат : AVI
Формат/Информация : Audio Video Interleave
Размер файла : 1,46 Гбайт
Продолжительность : 1 ч. 35 м.
Общий поток : 2190 Кбит/сек
Название фильма : A` nous quatre Cardinal!.[pirat.ca]
Программа кодирования : VirtualDubMod 1.5.10.2 (build 2540/release)
Видео
Идентификатор : 0
Формат : MPEG-4 Visual
Профиль формата : Advanced [email protected]
Параметр BVOP формата : 1
Параметр QPel формата : Нет
Параметр GMC формата : Без точки перехода
Параметр матрицы формата : Выборочная
Идентификатор кодека : XVID
Идентификатор кодека/Подсказка : XviD
Продолжительность : 1 ч. 35 м.
Битрейт : 1988 Кбит/сек
Ширина : 704 пикселя
Высота : 400 пикселей
Соотношение сторон : 16:9
Частота кадров : 25,000 кадров/сек
Цветовое пространство : YUV
Субдискретизация насыщенности : 4:2:0
Битовая глубина : 8 бит
Тип развёртки : Прогрессивная
Метод сжатия : С потерями
Бит/(Пиксели*Кадры) : 0.282
Размер потока : 1,32 Гбайт (91%)
Библиотека кодирования : XviD 1.2.1 (UTC 2008-12-04)
Аудио
Идентификатор : 1
Формат : AC-3
Формат/Информация : Audio Coding 3
Расширение режима : CM (complete main)
Параметр Endianness формата : Big
Идентификатор кодека : 2000
Продолжительность : 1 ч. 35 м.
Вид битрейта : Постоянный
Битрейт : 192 Кбит/сек
Каналы : 2 канала
Расположение каналов : Front: L R
Частота : 48,0 КГц
Частота кадров : 31,250 кадров/сек (1536 spf)
Метод сжатия : С потерями
Размер потока : 131 Мбайт (9%)
Выравнивание : Разделение по промежуткам
Продолжительность промежутка : 40 мс. (1,00 видеокадр)
Время предзагрузки промежутка : 500 мс.
Download / Скачать

Хотите скачать бесплатно? Зарегистрируйтесь на сайте (ссылка на регистрацию). Pirat.ca - самый быстрый торрент трекер в рунете!

Как скачивать  ·   Что такое торрент  ·   Рейтинг и ограничения

Mustafa Sazont

Корсар

Пост 16-Май-2018 15:46 (спустя 1 год 11 месяцев)

[Q] 

Классная комедия. Это продолжение фильма "Четыре мушкетера" 1974 года.
[Профиль]  [ЛС] 
Показать сообщения:    
Ответить на тему

Текущее время: Сегодня 16:03

Часовой пояс: GMT + 4



Вы не можете начинать темы
Вы не можете отвечать на сообщения
Вы не можете редактировать свои сообщения
Вы не можете удалять свои сообщения
Вы не можете голосовать в опросах
Вы не можете прикреплять файлы к сообщениям
Вы не можете скачивать файлы

Майнать ▼