Мстители: Война бесконечности / Avengers: Infinity War (Энтони Руссо/Anthony Russo, Джо Руссо/Joe Russo) [2018 г., Фантастика, фэнтези, боевик, приключения, TeleSynch, 720p] MVO

Ответить на тему
 
Автор
Сообщение

Пост 04-Май-2018 09:23

[Q] 

AlexDjas

Флибустьер

--Мстители: Война бесконечности / Avengers: Infinity War--«Всё мироздание. Раз и навсегда.»-- Производство: США / Marvel Studios Inc.
Год выпуска: 2018 г.
Жанр: Фантастика, фэнтези, боевик, приключения
Продолжительность: 02:08:54
Мировая премьера: 23 апреля 2018
Российская премьера: 3 мая 2018
Перевод: Любительский (многоголосый, закадровый) [КОЛОБОК]
Режиссёр: Энтони Руссо/Anthony Russo, Джо Руссо/Joe Russo--В ролях: Роберт Дауни мл., Крис Хемсворт, Марк Руффало, Крис Эванс, Скарлетт Йоханссон, Дон Чидл, Бенедикт Камбербэтч, Том Холланд, Чэдвик Боузмэн, Зои Салдана--Описание: Пока Мстители и их союзники продолжают защищать мир от различных опасностей, с которыми не смог бы справиться один супергерой, новая угроза возникает из космоса: Танос. Межгалактический тиран преследует цель собрать все шесть Камней Бесконечности — артефакты невероятной силы, с помощью которых можно менять реальность по своему желанию. Всё, с чем Мстители сталкивались ранее, вело к этому моменту — судьба Земли никогда ещё не была столь неопределённой.--
Качество видео: TeleSynch
Контейнер: MKV
Стандарт разрешения: 720p
Видео кодек: MPEG4 AVC
Аудио кодек: AC3
Видео: H.264/AVC, 1280x528, ~3221 Kbps, 23,976 fps
Аудио: 48 kHz, AC-3, 2 ch, 384 Kbps
Cубтитры: отсутствуют
Общее
Полное имя : D:\торрент\мстители\Avengers_Infinity War_2018_TS[pirat.ca].mkv
Формат : Matroska
Версия формата : Version 2
Размер файла : 3,31 Гбайт
Продолжительность : 2 ч. 8 м.
Режим общего битрейта : Переменный
Общий поток : 3678 Кбит/сек
Программа кодирования : libmatroska 1.4.1
Библиотека кодирования : SolveigMM Matroska Muxer Version 1.0.1502.31
Видео
Идентификатор : 1
Формат : AVC
Формат/Информация : Advanced Video Codec
Профиль формата : [email protected]
Настройки формата : CABAC / 4 Ref Frames
Параметр CABAC формата : Да
Параметр RefFrames формата : 4 кадра
Идентификатор кодека : V_MPEG4/ISO/AVC
Продолжительность : 2 ч. 8 м.
Вид битрейта : Переменный
Битрейт : 3221 Кбит/сек
Максимальный битрейт : 3500 Кбит/сек
Ширина : 1280 пикселей
Высота : 528 пикселей
Соотношение сторон : 2,40:1
Режим частоты кадров : Постоянный
Частота кадров : 23,976 (24000/1001) кадра/сек
Стандарт вещания : Component
Цветовое пространство : YUV
Субдискретизация насыщенности : 4:2:0
Битовая глубина : 8 бит
Тип развёртки : Прогрессивная
Бит/(Пиксели*Кадры) : 0.199
Размер потока : 2,90 Гбайт (88%)
Default : Нет
Forced : Нет
Цветовой диапазон : Limited
Основные цвета : BT.709
Характеристики трансфера : BT.709
Коэффициенты матрицы : BT.709
Аудио
Идентификатор : 2
Формат : AC-3
Формат/Информация : Audio Coding 3
Идентификатор кодека : A_AC3
Продолжительность : 2 ч. 8 м.
Вид битрейта : Постоянный
Битрейт : 384 Кбит/сек
Каналы : 2 канала
Расположение каналов : Front: L R
Частота : 48,0 КГц
Частота кадров : 31,250 кадров/сек (1536 SPF)
Битовая глубина : 16 бит
Метод сжатия : С потерями
Размер потока : 354 Мбайт (10%)
ServiceKind/String : Complete Main
Default : Нет
Forced : Нет
--Внимание!!! Присутствует реклама!--
Download / Скачать

Хотите скачать бесплатно? Зарегистрируйтесь на сайте (ссылка на регистрацию). Pirat.ca - самый быстрый торрент трекер в рунете!

Как скачивать  ·   Что такое торрент  ·   Рейтинг и ограничения

SM 96

Легенда

Пост 04-Май-2018 14:40 (спустя 5 часов)

[Q] 

Автору респект!!! Лови бочку
[Профиль]  [ЛС] 

_8165

Корсар

Пост 04-Май-2018 17:53 (спустя 3 часа)

[Q] 

Спасибо за раздачу Супер!
[Профиль]  [ЛС] 

koljan-2008

Флибустьер

5

Пост 04-Май-2018 20:04 (спустя 2 часа 10 минут)

[Q] 

Буду ждать качество, но на раздачу встану. раздающему Автору респект!!!

_________________
Нужно лишь верить в мечту. Искренне верить! И тогда всё получится!
[Профиль]  [ЛС] 

Кристина119

Гроза морей

Пост 04-Май-2018 21:21 (спустя 1 час 17 минут)

[Q] 

подождем, за труды спасибо
[Профиль]  [ЛС] 

Region-89

Гроза морей

552

Пост 05-Май-2018 00:42 (спустя 3 часа)

[Q] 

уснул прям в кинотеатре! всё в кучу смешали! be забыли рассамаху впихнуть до кучи! bj

_________________
[Профиль]  [ЛС] 

miham

Корсар

Пост 05-Май-2018 08:38 (спустя 7 часов)

[Q] 

На любителя Спасибо!!! Подождем качество.
[Профиль]  [ЛС] 

Skala973

Флибустьер

Пост 05-Май-2018 15:35 (спустя 6 часов)

[Q] 

За раздачу спасибо, но это такой бред, что даже описать невозможно.
С каждой серией, всё страшнее негодяй и всё уродливее его притязания на вселенское господство.
Но вот эти бродяги-мстители, всё равно его "поборят".
Только теперь я рад, что это была последняя серия про супергероев всех мастей, которую я видел.
Никогда в жизни больше не будут даже трейлеры про них смотреть.
[Профиль]  [ЛС] 

unitel1

Шкипер

Пост 05-Май-2018 22:07 (спустя 6 часов)

[Q] 

Супер! Лови бочкуСпасибо
[Профиль]  [ЛС] 

realleo

Корсар

Пост 06-Май-2018 02:17 (спустя 4 часа)

[Q] 

кино для детишек, взрослым лишний часок поспать спокойно при просмотре :)
[Профиль]  [ЛС] 

evasby

Лоцман

Пост 06-Май-2018 23:36 (спустя 21 час)

[Q] 

Норм кинцо, по мне так гораздо лучше предыдущих мстителей, не мусолили личными переживаниями героев, а сосредоточились на антагонисте.
[Профиль]  [ЛС] 

ikea2

Шкипер

Пост 07-Май-2018 23:00 (спустя 23 часа)

[Q] 

люди выше тоже не знают, что такое сиквел)) имхо лучший супергеройский фильм или фантастический блокбастер, что я смотрел в жизни!!! конечно лучше в качестве и оригинале, наши переводчики как всегда муд@ки...
[Профиль]  [ЛС] 

Pirat177

Флибустьер

Пост 08-Май-2018 17:41 (спустя 18 часов)

[Q] 

Жду качества...
[Профиль]  [ЛС] 

Wlad_UA

Штурман

Пост 09-Май-2018 13:20 (спустя 19 часов)

[Q] 

Глянул сэмпл... ну это ж экранка а не телесинк как заявлено... Мельчают пираты
[Профиль]  [ЛС] 

antondeus

Штурман

Пост 09-Май-2018 22:45 (спустя 9 часов)

[Q] 

Ходил в кино , с восторгом пролетели 2.5 часа. Взрослый я дядя , двое детей уже.
Почитал тут комментарии и приуныл ...
В общем - фильм ОЧЕНЬ хорош , я получил много удовольствия, чего и вам советую
[Профиль]  [ЛС] 

baltimor30

Корсар

Пост 10-Май-2018 19:37 (спустя 20 часов)

[Q] 

Я так и не понял по переводу, он это сделал, что сделал, ждать 2 части по ходу
[Профиль]  [ЛС] 

dl22

Морской Волк

Пост 13-Май-2018 17:09 (спустя 2 дня 21 час)

[Q] 

Картинка гэ. Будем ждать.
[Профиль]  [ЛС] 

Мания величия

Морской Волк

Пост 16-Май-2018 23:18 (спустя 3 дня)

[Q] 

не впечатлило
на раздаче постою раздавану респект

_________________
[Профиль]  [ЛС] 
Показать сообщения:    
Ответить на тему

Текущее время: Сегодня 15:47

Часовой пояс: GMT + 4



Вы не можете начинать темы
Вы не можете отвечать на сообщения
Вы не можете редактировать свои сообщения
Вы не можете удалять свои сообщения
Вы не можете голосовать в опросах
Вы не можете прикреплять файлы к сообщениям
Вы не можете скачивать файлы

Майнать ▼