Бойтесь ходячих мертвецов / Fear the Walking Dead / Сезон: 4 / Серии: 1-6 из 16 (Адам Дэвидсон / Adam Davidson) [2018 г., ужасы, драма, WEBRip, 1080p] DVO (АМС)

Ответить на тему
 
Автор
Сообщение

Пост 24-Апр-2018 00:23

[Q] 

tank69

Корсар

-Бойтесь ходячих мертвецов / Fear the Walking Dead-- Производство: США, AMC Studios
Жанр: ужасы, драма
Год выпуска: 2018 г.
Продолжительность: 00:47:08
Мировая премьера: 15 апреля 2018
Перевод: Любительский (двухголосый, закадровый) [АМС]
Режиссёр: Адам Дэвидсон / Adam Davidson-В ролях: Клифф Кёртис, Ким Диккенс, Алисия Дебнем-Кери, Фрэнк Диллэйн, Рубен Бладес, Мерседес Масон, Колман Доминго, Лоренцо Джеймс Хенри, Элизабет Родригес, Тони Френч-Описание: Действия сериала происходят параллельно с событиями зомби-апокалипсиса, показанными в сериале «Ходячие мертвецы», но в совершенно другом месте — Лос-Анджелесе. Акцент будет сделан на семейные отношения, в частности, проблемы отцов и детей. История вращается вокруг Шона — разведённого школьного учителя и Нэнси руководительницы женского совета. А так же детей Нэнси: Ника, который борется с наркотической зависимостью и амбициозной дочери Эшли.-
Качество видео: WEBRip 1080p
Контейнер: MKV
Видео кодек: MPEG4 AVC
Аудио кодек: AC3
Видео: AVC, 1920x1080, 25.000 fps, 11200 Kbps
Аудио Rus: AC-3, 48.0 KHz, 2 ch, 192 Kbps
Аудио Eng: AC-3, 48.0 KHz, 6 ch, 384 Kbps
Cубтитры: отсутствуют-
никальный идентификатор : 188959704719110159230422516736862404546 (0x8E2850BB70B0C697BCE37F9A3B8F3FC2)
Полное имя : E:\FTWD (Season 04) AMC 1080[pirat.ca]\Fear.the.Walking.Dead.S04E01.1080p.AMC.mkv
Формат : Matroska
Версия формата : Version 2
Размер файла : 3,96 Гбайт
Продолжительность : 47 м. 8 с.
Режим общего битрейта : Переменный
Общий поток : 12,0 Мбит/сек
Дата кодирования : UTC 2018-04-16 08:29:54
Программа кодирования : mkvmerge v7.8.0 ('River Man') 32bit built on Apr 3 2015 12:11:22
Библиотека кодирования : libebml v1.3.1 + libmatroska v1.4.2
Видео
Идентификатор : 1
Формат : AVC
Формат/Информация : Advanced Video Codec
Профиль формата : [email protected]
Настройки формата : CABAC / 4 Ref Frames
Параметр CABAC формата : Да
Параметр RefFrames формата : 4 кадра
Идентификатор кодека : V_MPEG4/ISO/AVC
Продолжительность : 47 м. 8 с.
Вид битрейта : Переменный
Битрейт : 11,2 Мбит/сек
Максимальный битрейт : 15,0 Мбит/сек
Ширина : 1920 пикселей
Высота : 1080 пикселей
Соотношение сторон : 16:9
Режим частоты кадров : Постоянный
Частота кадров : 25,000 кадров/сек
Цветовое пространство : YUV
Субдискретизация насыщенности : 4:2:0
Битовая глубина : 8 бит
Тип развёртки : Прогрессивная
Бит/(Пиксели*Кадры) : 0.216
Размер потока : 3,69 Гбайт (93%)
Язык : English
Default : Да
Forced : Нет
Цветовой диапазон : Limited
Основные цвета : BT.709
Характеристики трансфера : BT.709
Коэффициенты матрицы : BT.709
Аудио #1
Идентификатор : 2
Формат : AC-3
Формат/Информация : Audio Coding 3
Идентификатор кодека : A_AC3
Продолжительность : 47 м. 8 с.
Вид битрейта : Постоянный
Битрейт : 192 Кбит/сек
Каналы : 2 канала
Расположение каналов : Front: L R
Частота : 48,0 КГц
Частота кадров : 31,250 кадров/сек (1536 SPF)
Битовая глубина : 16 бит
Метод сжатия : С потерями
Размер потока : 64,7 Мбайт (2%)
Язык : Russian
ServiceKind/String : Complete Main
Default : Да
Forced : Нет
Аудио #2
Идентификатор : 3
Формат : AC-3
Формат/Информация : Audio Coding 3
Идентификатор кодека : A_AC3
Продолжительность : 47 м. 8 с.
Вид битрейта : Постоянный
Битрейт : 384 Кбит/сек
Каналы : 6 каналов
Расположение каналов : Front: L C R, Side: L R, LFE
Частота : 48,0 КГц
Частота кадров : 31,250 кадров/сек (1536 SPF)
Битовая глубина : 16 бит
Метод сжатия : С потерями
Размер потока : 129 Мбайт (3%)
Язык : English
ServiceKind/String : Complete Main
Default : Нет
Forced : Нет
Текст
Идентификатор : 4
Формат : UTF-8
Идентификатор кодека : S_TEXT/UTF8
Идентификатор кодека/Информация : UTF-8 Plain Text
Язык : English
Default : Нет
Forced : Нет
-
-
Раздача ведётся путём добавления новых серий; при каждом добавлении создаётся новый торрент.
Чтобы начать докачку новой серии, пользователям необходимо сделать следующее:
1. остановить скачивание,
2. удалить старый торрент у себя из клиента (старые серии удалять не надо),
3. скачать новый торрент и запустить его у себя в клиенте вместо старого, при этом указать клиенту путь в старую папку, куда и должно происходить скачивание новых серий.
Ваш клиент при этом должен произвести хеширование (проверку) старой папки (если не производит сам - помогите ему сделать это), и будет докачивать только те серии которых у вас ещё нет. Старые серии при этом не удаляются, а продолжают раздаваться!
Eсли вы уже удалили старые серии, то предотвратить повторную закачку старых серий можно, отжав галочку в соответствующих местах при запуске нового торрента. По возможности, желательно не удалять старые серии как можно дольше, чтобы релизёр не столько продолжал раздавать старые серии, а смог сконцентрироваться на новых.
Совет для тех, кто не хочет ждать перехеширования:
Создайте ещё одну папку рядом с папкой сериала (рядом, а не в ней!!!). Каждую новую серию после удачной загрузки копируйте в новую папку так чтобы ваша основная папка всегда была пуста. Когда ваш новый торрент предложит вам закачать все файлы, выберете только последнюю. Для сидирования же укажите адрес новой папки.
Как закачать отдельный файл из торрента или докачать ранее пропущенные файлы торрента!
-
1. Открыть торрент
2. Снять галки с тех файлов торрента, которые мы не хотим закачивать. Оставляем только на нужных нам файлах (файле).
3. Нажать О.К.
В клиенте utorrent
Инструкция
1) Открыть торрент

2) Снять галки с тех файлов торрента, которые мы не хотим закачивать:
* либо вручную, снимая с каждого файла галку( скрин №1)
* либо, нажав кнопку "Снять метки (Select None)", сняв сразу со всех файлов(скрин №2)
№1

№2

Оставляем только на нужных нам файлах (файле).

3)Нажать О.К
Download / Скачать

Хотите скачать бесплатно? Зарегистрируйтесь на сайте (ссылка на регистрацию). Pirat.ca - самый быстрый торрент трекер в рунете!

Как скачивать  ·   Что такое торрент  ·   Рейтинг и ограничения



Последний раз редактировалось: tank69 (Вчера 15:58), всего редактировалось 5 раз(а)

miham

Корсар

Пост 24-Апр-2018 08:17 (спустя 7 часов)

[Q] 

Супер! Давно ждем! Лови бочку
[Профиль]  [ЛС] 

tank69 ®

Корсар

701

Пост 24-Апр-2018 11:34 (спустя 3 часа)

[Q] 

Выложил этот релиз, поскольку 4 сезон кардинально отличается от концепции предыдущих...и самое главное, как мне показалось, в 4 сезоне "Бойтесь ходячих мертвецов" происходит слияние сюжетов с 8 сезоном сериала "Ходячие мертвецы"... что очень интересно)
Приятного просмотра в хорошем качестве картинки и звука)
30.04.18 - добавлена 3 серия.
[Профиль]  [ЛС] 

Smat2010

Шкипер

Пост 30-Апр-2018 19:44 (спустя 6 дней)

[Q] 

3 сезон тоже отличался от предыдущих. Странно что его не выкладывали на трекере.
[Профиль]  [ЛС] 

Ruslan78

Штурман

Пост 30-Апр-2018 20:36 (спустя 51 минута)

[Q] 

Ку три раза
Сейчас посмотрим!
[Профиль]  [ЛС] 

tank69 ®

Корсар

701

Пост 30-Апр-2018 23:10 (спустя 2 часа 34 минуты)

[Q] 

Smat2010,
Могу выложить, если кому то интересно)
[Профиль]  [ЛС] 

tank69 ®

Корсар

701

Пост 07-Май-2018 19:10 (спустя 6 дней)

[Q] 

07.05.18 - добавлена 4 серия.
[Профиль]  [ЛС] 

miham

Корсар

Пост 08-Май-2018 08:13 (спустя 13 часов)

[Q] 

Супер! Автору респект! Лови бочку
[Профиль]  [ЛС] 

tank69 ®

Корсар

701

Пост 14-Май-2018 20:08 (спустя 6 дней)

[Q] 

14.05.18 - добавлена 5 серия.
[Профиль]  [ЛС] 

miham

Корсар

Пост 15-Май-2018 08:17 (спустя 12 часов)

[Q] 

Спасибо!!! Всем качать!!! Отличный сериал.
[Профиль]  [ЛС] 

Region-89

Гроза морей

552

Пост 17-Май-2018 21:20 (спустя 2 дня 13 часов)

[Q] 

Автору респект!!! гораздо лучше и круче чем "ходячие!"

_________________
[Профиль]  [ЛС] 

tank69 ®

Корсар

701

Пост Вчера 15:59 (спустя 3 дня)

[Q] 

21.05.18 - добавлена 6 серия.
[Профиль]  [ЛС] 

v230v

Лоцман

Пост Вчера 16:33 (спустя 33 минуты)

[Q] 

Спасибо огромное, посмотрим!!!
[Профиль]  [ЛС] 

jenya-kopew

Корсар

Пост Вчера 17:00 (спустя 26 минут)

[Q] 

Третий тоже классный сезон
[Профиль]  [ЛС] 
Показать сообщения:    
Ответить на тему

Текущее время: Сегодня 10:08

Часовой пояс: GMT + 4



Вы не можете начинать темы
Вы не можете отвечать на сообщения
Вы не можете редактировать свои сообщения
Вы не можете удалять свои сообщения
Вы не можете голосовать в опросах
Вы не можете прикреплять файлы к сообщениям
Вы не можете скачивать файлы

Майнать ▼