Темные времена / Darkest Hour (Джо Райт / Joe Wright) [2017 г., драма, военный, биография, история, BDRemux, 2160p] Dub (iTunes) + Original (Eng) + Subs (Rus, Eng)

Ответить на тему
 
Автор
Сообщение

Пост 18-Май-2018 00:02

[Q] 

moscowpan

Гроза морей

-Темные времена / Darkest Hour-«Никогда не сдавайся»- Производство: Великобритания, Working Title Films
Год выпуска: 2017 г.
Жанр: драма, военный, биография, история
Продолжительность: 02:05:17
Мировая премьера: 1 сентября 2017
Российская премьера: 18 января 2018
Дата выхода Blu-Ray: 15 марта 2018
Перевод: Профессиональный (полное дублирование) [iTunes]
Оригинальный аудиопоток: английский
Режиссёр: Джо Райт / Joe Wright-В ролях: Лили Джеймс, Гэри Олдман, Бен Мендельсон, Кристин Скотт Томас, Стивен Диллэйн, Сэмюэл Уэст, Ханна Стил, Рональд Пикап, Анна Барнетт, Николас Джонс-Описание: В самом начале Второй мировой войны Британия сталкивается с угрозой вторжения немцев в их страну. Нацисты продвигаются все дальше, армия союзников оказывается загнана в угол на пляжах Дюнкерка, судьба Западной Европы зависит от того, какие действия примет недавно назначенный премьер-министром Великобритании Уинстон Черчилль. Ему предстоит сделать нелегкий выбор: вступить в переговоры с Гитлером и заключить соглашение, чтобы спасти граждан страны, или же попытаться сплотить нацию и дать отпор захватчикам, невзирая на призрачные шансы на успех.-
Качество видео: Blu-Ray Remux
Контейнер: MKV
Стандарт разрешения: 2160p
Видео кодек: HEVC
Аудио кодек: AC3
Видео: HEVC, 49586 Kбит/с, 3840x2160, 23.976 Кадр/с
Аудио: AC3, 6 ch, 384 Кбит/с Русский
Аудио #2: TrueHD, 8 ch, 4225 Кбит/с Английский
Cубтитры: русские, английские
Исходный диск: Darkest Hour 2017 2160p ITA UHD BluRay HDR HEVC Atmos-CYBER
Озвучка от iTunes
General
Unique ID : 176686040787072539183856094934591148491 (0x84EC7E61340BE51CB3AD4A4F89AD11CB)
Complete name : F:\Видосики\Darkest.Hour.2017.hdR.remuX.216Op.mkv
Format : Matroska
Format version : Version 2
File size : 48.0 GiB
Duration : 2 h 5 min
Overall bit rate mode : Variable
Overall bit rate : 54.9 Mb/s
Movie name : Darkest Hour 2017 remux 2160p от werecut'a
Encoded date : UTC 2018-05-09 02:24:10
Writing application : mkvmerge v2.9.9 ('Tutu') built on Nov 25 2009 21:13:32
Writing library : libebml v0.7.9 + libmatroska v0.8.1
Video
ID : 1
Format : HEVC
Format/Info : High Efficiency Video Coding
Commercial name : HDR10
Format profile : Main [email protected]@High
Codec ID : V_MPEGH/ISO/HEVC
Duration : 2 h 5 min
Width : 3 840 pixels
Height : 2 160 pixels
Display aspect ratio : 16:9
Frame rate mode : Constant
Frame rate : 23.976 (24000/1001) FPS
Color space : YUV
Chroma subsampling : 4:2:0 (Type 2)
Bit depth : 10 bits
Writing library : ATEME Titan File 3.8.14 (4.8.14.0)
Language : English
Default : No
Forced : No
Color range : Limited
Color primaries : BT.2020
Transfer characteristics : PQ
Matrix coefficients : BT.2020 non-constant
Mastering display color pri : BT.709
Mastering display luminance : min: 0.0050 cd/m2, max: 1000 cd/m2
Maximum Content Light Level : 662 cd/m2
Maximum Frame-Average Light : 151 cd/m2
Audio #1
ID : 2
Format : AC-3
Format/Info : Audio Coding 3
Codec ID : A_AC3
Duration : 2 h 5 min
Bit rate mode : Constant
Bit rate : 384 kb/s
Channel(s) : 6 channels
Channel positions : Front: L C R, Side: L R, LFE
Sampling rate : 48.0 kHz
Frame rate : 31.250 FPS (1536 SPF)
Bit depth : 16 bits
Compression mode : Lossy
Stream size : 344 MiB (1%)
Language : Russian
Service kind : Complete Main
Default : Yes
Forced : Yes
Audio #2
ID : 3
Format : TrueHD
Format profile : TrueHD+Atmos / TrueHD
Codec ID : A_TRUEHD
Bit rate mode : Variable
Maximum bit rate : 6 603 kb/s
Channel(s) : Object Based / 8 channels
Channel positions : Object Based / Front: L C R, Side: L R, Back: L R, LFE
Sampling rate : / 48.0 kHz
Frame rate : 1 200.000 FPS (40 SPF)
Compression mode : Lossless
Language : English
Default : No
Forced : No
Audio #3
ID : 4
Format : AC-3
Format/Info : Audio Coding 3
Codec ID : A_AC3
Duration : 2 h 5 min
Bit rate mode : Constant
Bit rate : 640 kb/s
Channel(s) : 6 channels
Channel positions : Front: L C R, Side: L R, LFE
Sampling rate : 48.0 kHz
Frame rate : 31.250 FPS (1536 SPF)
Bit depth : 16 bits
Compression mode : Lossy
Stream size : 574 MiB (1%)
Language : English
Service kind : Complete Main
Default : No
Forced : No
Text #1
ID : 5
Format : UTF-8
Codec ID : S_TEXT/UTF8
Codec ID/Info : UTF-8 Plain Text
Language : Russian
Default : Yes
Forced : Yes
Text #2
ID : 6
Format : UTF-8
Codec ID : S_TEXT/UTF8
Codec ID/Info : UTF-8 Plain Text
Language : Russian
Default : No
Forced : No
Text #3
ID : 7
Format : UTF-8
Codec ID : S_TEXT/UTF8
Codec ID/Info : UTF-8 Plain Text
Language : English
Default : No
Forced : No
Text #4
ID : 8
Format : UTF-8
Codec ID : S_TEXT/UTF8
Codec ID/Info : UTF-8 Plain Text
Title : SDH
Language : English
Default : No
Forced : No
Menu
00:00:00.000 : en:Chapter 1
00:05:44.052 : en:Chapter 2
00:10:41.975 : en:Chapter 3
00:14:23.613 : en:Chapter 4
00:22:57.084 : en:Chapter 5
00:29:47.202 : en:Chapter 6
00:37:33.543 : en:Chapter 7
00:41:28.611 : en:Chapter 8
00:48:50.928 : en:Chapter 9
00:56:40.522 : en:Chapter 10
01:03:02.487 : en:Chapter 11
01:11:21.027 : en:Chapter 12
01:19:05.491 : en:Chapter 13
01:24:29.815 : en:Chapter 14
01:30:49.653 : en:Chapter 15
01:36:22.777 : en:Chapter 16
01:39:57.992 : en:Chapter 17
01:45:44.129 : en:Chapter 18
01:53:19.251 : en:Chapter 19
02:00:08.618 : en:Chapter 20
Download / Скачать

Хотите скачать бесплатно? Зарегистрируйтесь на сайте (ссылка на регистрацию). Pirat.ca - самый быстрый торрент трекер в рунете!

Как скачивать  ·   Что такое торрент  ·   Рейтинг и ограничения

kugesan

62639

Пост 18-Май-2018 23:39 (спустя 23 часа)

[Q] 

moscowpan, А не слабовата ли русская дорожка для ремукса?

_________________
В мире две бесконечности: вселенная и человеческая глупость - Альберт Эйнштен
«Можно вытащить человека из грязи, но нельзя вытащить грязь из человека»!
[Профиль]  [ЛС] 

moscowpan ®

Гроза морей

4193

Пост 18-Май-2018 23:54 (спустя 14 минут)

[Q] 

825795moscowpan, А не слабовата ли русская дорожка для ремукса?
какая есть, дорожка iTunes. Другого нету.

_________________
[Профиль]  [ЛС] 

Пост 19-Май-2018 13:31 (спустя 13 часов)

Топик был перенесен из форума Зарубежное Кино (Трюм) в форум Новинки (BD/WEB-DL/HDTV/DVD)
erchine
 

Кристина119

Гроза морей

Пост 19-Май-2018 16:55 (спустя 17 часов)

[Q] 

Спасибо, забираю Лови бочку
[Профиль]  [ЛС] 
Показать сообщения:    
Ответить на тему

Текущее время: Сегодня 06:32

Часовой пояс: GMT + 4



Вы не можете начинать темы
Вы не можете отвечать на сообщения
Вы не можете редактировать свои сообщения
Вы не можете удалять свои сообщения
Вы не можете голосовать в опросах
Вы не можете прикреплять файлы к сообщениям
Вы не можете скачивать файлы

Майнать ▼