Я сражаюсь с великанами / I Kill Giants (Андерс Вальтер Хансен / Anders Walter) [2017, фэнтези, триллер, драма, HDRip] Дублированный [iTunes]

Ответить на тему
 
Автор
Сообщение

Пост 18-Май-2018 11:39

[Q] 

Су-34

Гроза морей

Я сражаюсь с великанами / I Kill Giants
«Основано на величайшем комиксе «Я убиваю великанов»- -
Год выпуска: 2017
Страна: Бельгия, Великобритания, США
Жанр: фэнтези, триллер, драма
Продолжительность: 01:46:23
Перевод: Дублированный [iTunes]- Режиссер: Андерс Вальтер Хансен / Anders Walter- В ролях:
-Мэдисон Вульф (Barbara), Зои Салдана (Mrs. Mollé), Имоджен Путс (Karen), Сидни Вэйд (Sophia), Рори Джексон (Taylor), Аллана О’Коннор (Crony #1), Майя Питерс (Crony #2), Арт Паркинсон (Dave), Дженнифер Эль (Barbara's Mother), Дон Вичерли (Principal Marx), Эйдин Уайлд (Mrs. Potts), Ноэль Кларк (Mr. Mollé)- Описание:
Барбара Торсон - особенная, ее уникальный талант - это возможность видеть мир великанов. И этот мир угрожает людям. Барбаре никто не верит, но она единственная, кто может спасти человечество от исчезновения. Она объявляет великанам войну и готовится к главному сражению в своей жизни.-https://www.kinopoisk.ru/film/ya-srazhayus-s-velikanami-2017-924989/
https://www.imdb.com/title/tt4547194/
http://multi-up.com/1198382- Качество: HDRip
Формат: AVI
Видео кодек: XviD
Аудио кодек: AC3
Видео: XviD, 720x304 (2.35:1), 1974 kbps, 23,976 fps, 0,376 bpp
Аудио №1: AC3 / 5.1 / 48 kHz / 384 kbps /
Аудио №2: AC3 / 5.1 / 48 kHz / 384 kbps /-
General
Complete name : D:\Torrents\Y4.Cp4zh4juC.C.B3L1k4H4m1.2O18.D.BDRip.21OOMB.avi
Format : AVI
Format/Info : Audio Video Interleave
Format profile : OpenDML
File size : 2.05 GiB
Duration : 1 h 46 min
Overall bit rate : 2 761 kb/s
Movie name : Y4.Cp4zh4juC.C.B3L1k4H4m1.2O18.D.BDRip.21OOMB
Writing application : VirtualDubMod 1.5.10.2 (build 2540/release)
Original source form/Name : Movie
Video
ID : 0
Format : MPEG-4 Visual
Format profile : Advanced [email protected]
Format settings, BVOP : 2
Format settings, QPel : No
Format settings, GMC : No warppoints
Format settings, Matrix : Custom
Codec ID : XVID
Codec ID/Hint : XviD
Duration : 1 h 46 min
Bit rate : 1 975 kb/s
Width : 720 pixels
Height : 304 pixels
Display aspect ratio : 2.35:1
Frame rate : 23.976 (24000/1001) FPS
Color space : YUV
Chroma subsampling : 4:2:0
Bit depth : 8 bits
Scan type : Progressive
Compression mode : Lossy
Bits/(Pixel*Frame) : 0.376
Stream size : 1.47 GiB (72%)
Writing library : XviD 1.2.1 (UTC 2008-12-04)
Audio #1
ID : 1
Format : AC-3
Format/Info : Audio Coding 3
Mode extension : CM (complete main)
Format settings, Endianness : Big
Codec ID : 2000
Duration : 1 h 46 min
Bit rate mode : Constant
Bit rate : 384 kb/s
Channel(s) : 6 channels
Channel positions : Front: L C R, Side: L R, LFE
Sampling rate : 48.0 kHz
Frame rate : 31.250 FPS (1536 spf)
Compression mode : Lossy
Stream size : 292 MiB (14%)
Alignment : Split accross interleaves
Interleave, duration : 42 ms (1.00 video frame)
Interleave, preload duration : 500 ms
Audio #2
ID : 2
Format : AC-3
Format/Info : Audio Coding 3
Mode extension : CM (complete main)
Format settings, Endianness : Big
Codec ID : 2000
Duration : 1 h 46 min
Bit rate mode : Constant
Bit rate : 384 kb/s
Channel(s) : 6 channels
Channel positions : Front: L C R, Side: L R, LFE
Sampling rate : 48.0 kHz
Frame rate : 31.250 FPS (1536 spf)
Compression mode : Lossy
Stream size : 292 MiB (14%)
Alignment : Split accross interleaves
Interleave, duration : 42 ms (1.00 video frame)
Interleave, preload duration : 500 ms
Download / Скачать

Хотите скачать бесплатно? Зарегистрируйтесь на сайте (ссылка на регистрацию). Pirat.ca - самый быстрый торрент трекер в рунете!

Как скачивать  ·   Что такое торрент  ·   Рейтинг и ограничения



Последний раз редактировалось: Су-34 (2018-05-19 08:45), всего редактировалось 1 раз

Пост 19-Май-2018 13:17 (спустя 1 день 1 час)

Топик был перенесен из форума Зарубежное Кино (Трюм) в форум Новинки (HD|DVD|BD| TV|SAT|PDTV| - Rips)
erchine
 

VooL

Шкипер

Пост 19-Май-2018 20:57 (спустя 1 день 9 часов)

[Q] 

как кино ? Лови бочку

_________________
Водку не обещаю, но погуляем на славу (с) Иван Сусанин
[Профиль]  [ЛС] 

Mitay

388

Пост 20-Май-2018 10:31 (спустя 13 часов)

[Q] 

Если честно, бред сивой кобылы, рассказ о девочке, у которой с головой явно какие то проблемы
[Профиль]  [ЛС] 

kiss2007

Морской Волк

Пост 21-Май-2018 09:47 (спустя 23 часа)

[Q] 

Кино очередной бред с намёком на толерантность, и прочую лабуду с элементами шизофрении !
Удалите раздачу и не давайте разлагать мозги этим шлаком другим! Не качает
[Профиль]  [ЛС] 

AlexDjas

Флибустьер

3379

Пост 21-Май-2018 09:56 (спустя 9 минут)

[Q] 

825892Если честно, бред сивой кобылы, рассказ о девочке, у которой с головой явно какие то проблемы
Полностью согласен. Но есть люди кому может и понравится (хотя нам их не понять). А за раздачу СПС.

_________________
- Один терапевт - это 1024 гигапевта, или 1048576 мегапевтов!
[Профиль]  [ЛС] 

Drooide

Лоцман

Пост 22-Май-2018 17:49 (спустя 1 день 7 часов)

[Q] 

Хорошая фэнтези драма. Рекомендован к просмотру родителям, у кого есть дети подростки. Нужно постоянно уделять внимание своему чаду, дабы не допустить серьёзных психических растройств. Героине фильма с этим как раз не повезло. Лови бочку
[Профиль]  [ЛС] 

Gari4

Флибустьер

Пост 23-Май-2018 11:41 (спустя 17 часов)

[Q] 

Бред полнейший. Девка, которой лет 14-15, страдает расстройствами личности, из-за чего ей кажутся великаны. Куда смотрит психолог? Окей, с ней общаются, а раньше? Даже после того, как психолог получает по роже = все нормально.
Это такая чушь, без всяческого посыла.
И да, у ней мама болеет, но б...ть, я не сопереживаю ей, ибо я не знаю, как она стала такой - ненормальной - я не вижу первопричину, может она всегда такой была, может колеса или еще что? Почему она стала такой?
Всех больше жаль мне сестру этой девахи, которая вкалывает, готовит, убирает, пытаясь заботится о чокнутой и их брате, остальные герои какие-то пустые.
Отказать

_________________
РЕБЯТ!! Подпишитесь на канал! Вам все равно, а мне приятно))
https://www.youtube.com/channel/UCHdnAvKKhkxeJvg3DQ...ew_as=subscriber
[Профиль]  [ЛС] 
Показать сообщения:    
Ответить на тему

Текущее время: Сегодня 15:40

Часовой пояс: GMT + 4



Вы не можете начинать темы
Вы не можете отвечать на сообщения
Вы не можете редактировать свои сообщения
Вы не можете удалять свои сообщения
Вы не можете голосовать в опросах
Вы не можете прикреплять файлы к сообщениям
Вы не можете скачивать файлы

Майнать ▼