Топор 3 / Hatchet III (Б.Дж. МакДоннел / BJ McDonnell) [2013 г., ужасы, боевик, триллер, комедия, WEB-DLRip] VO [den904] + Original (Eng)

Ответить на тему
 
Автор
Сообщение

Пост 19-Июн-2013 10:13

[Q] 

aleksey99

--Топор 3 / Hatchet III-- Производство: США / ArieScope Pictures
Год выпуска: 2013 г.
Жанр: ужасы, боевик, триллер, комедия
Продолжительность: 01:21:23-Мировая премьера: 14 июня 2013-Перевод: Любительский (одноголосый закадровый) [den904]
Оригинальный аудиопоток: английский-Режиссер: Б.Дж. МакДоннел / BJ McDonnell-В ролях: Даниэль Харрис, Кэйн Ходдер, Зэк Гэллиган, Кэролин Уильямс, Дерек Мирс, Коуди Блу Снайдер, Райли Вандербилт, Роберт Дьяго Дукуй, Шон Уэйлен, Джейсон Трост-Описание: Виктор Кроули вновь возродился и готов убивать всех, кто попадется ему на пути. Но на этот раз в его родные болота наведается девушка Мэрибет, которой известно как снять его проклятье и положить конец бессмысленной резне раз и навсегда.-- -Качество видео: WEB-DLRip
Контейнер: AVI
Видео кодек: XviD
Аудио кодек: MP3
Видео: 720x304 (2.37:1), 23.976 fps, XviD build 50 ~1941 kbps avg, 0.37 bit/pixel
Аудио 1: 48 kHz, MPEG Layer 3, 2 ch, ~224.00 kbps avg VO [den904]
Аудио 1: 48 kHz, MPEG Layer 3, 2 ch, ~224.00 kbps avg [ENG]
Cубтитры: отсутствуют
Общее
Полное имя : F:\Torent 2\Topor.3.2013.L1.WEB-DLRip[pirat.ca].avi
Формат : AVI
Формат/Информация : Audio Video Interleave
Размер файла : 1,37 Гбайт
Продолжительность : 1 ч. 21 м.
Режим общего битрейта : Переменный
Общий поток : 2405 Кбит/сек
Программа кодирования : VirtualDubMod 1.5.10.3 | www.virtualdub-fr.org || (build 2550/release)
Библиотека кодирования : VirtualDubMod build 2550/release
Видео
Идентификатор : 0
Формат : MPEG-4 Visual
Профиль формата : Advanced [email protected]
Параметр BVOP формата : 2
Параметр QPel формата : Нет
Параметр GMC формата : Без точки перехода
Параметр матрицы формата : Выборочная
Идентификатор кодека : XVID
Идентификатор кодека/Подсказка : XviD
Продолжительность : 1 ч. 21 м.
Битрейт : 1943 Кбит/сек
Ширина : 720 пикселей
Высота : 304 пикселя
Соотношение сторон : 2,35:1
Частота кадров : 23,976 кадра/сек
Цветовое пространство : YUV
Субдискретизация насыщенности : 4:2:0
Битовая глубина : 8 бит
Тип развёртки : Прогрессивная
Метод сжатия : С потерями
Бит/(Пиксели*Кадры) : 0.370
Размер потока : 1,10 Гбайт (81%)
Библиотека кодирования : XviD 1.2.1 (UTC 2008-12-04)
Аудио #1
Идентификатор : 1
Формат : MPEG Audio
Версия формата : Version 1
Профиль формата : Layer 3
Идентификатор кодека : 55
Идентификатор кодека/Подсказка : MP3
Продолжительность : 1 ч. 21 м.
Вид битрейта : Постоянный
Битрейт : 224 Кбит/сек
Каналы : 2 канала
Частота : 48,0 КГц
Метод сжатия : С потерями
Размер потока : 130 Мбайт (9%)
Выравнивание : Соединение по промежуткам
Продолжительность промежутка : 42 мс. (1,00 видеокадр)
Время предзагрузки промежутка : 504 мс.
Аудио #2
Идентификатор : 2
Формат : MPEG Audio
Версия формата : Version 1
Профиль формата : Layer 3
Режим : Joint stereo
Расширение режима : MS Stereo
Идентификатор кодека : 55
Идентификатор кодека/Подсказка : MP3
Продолжительность : 1 ч. 21 м.
Вид битрейта : Переменный
Битрейт : 224 Кбит/сек
Каналы : 2 канала
Частота : 48,0 КГц
Метод сжатия : С потерями
Размер потока : 130 Мбайт (9%)
Выравнивание : Разделение по промежуткам
Продолжительность промежутка : 42 мс. (1,00 видеокадр)
Время предзагрузки промежутка : 500 мс.
Библиотека кодирования : LAME3.98.2
Трейлер
Download / Скачать

Хотите скачать бесплатно? Зарегистрируйтесь на сайте (ссылка на регистрацию). Pirat.ca - самый быстрый торрент трекер в рунете!

Как скачивать  ·   Что такое торрент  ·   Рейтинг и ограничения

Пост 19-Июн-2013 12:25 (спустя 2 часа 11 минут)

Топик был перенесен из форума Зарубежное Кино (Трюм) в форум Новинки (HD|DVD|BD| TV|SAT|PDTV| - Rips)

ara1205
 

dimonpa

Гроза морей

Пост 19-Июн-2013 12:39 (спустя 2 часа 26 минут)

[Q] 

[Профиль]  [ЛС] 

MaXoR

Гроза морей

1546

Пост 19-Июн-2013 13:32 (спустя 52 минуты)

[Q] 

Как треш, ребят? Первую смотрел юным - вкатила, на счет этой сомнения есть, смотреть или нет.

_________________
Живы будем - не помрем!
[Профиль]  [ЛС] 

SCORPION.

Морской Волк

Пост 19-Июн-2013 18:19 (спустя 4 часа)

[Q] 

[Профиль]  [ЛС] 

watsonix

Флибустьер

Пост 19-Июн-2013 19:40 (спустя 1 час 20 минут)

[Q] 

[Профиль]  [ЛС] 

Gvozdochet

Корсар

Пост 20-Июн-2013 00:36 (спустя 4 часа)

[Q] 

[Профиль]  [ЛС] 

СерВолк

Флибустьер

Пост 20-Июн-2013 01:20 (спустя 44 минуты)

[Q] 

посмотрю ... первые 2 не смотрел
[Профиль]  [ЛС] 

Voland57

Корсар

Пост 14-Июл-2013 20:46 (спустя 24 дня)

[Q] 

[Профиль]  [ЛС] 

sba

Морской Волк

Пост 17-Июл-2013 05:20 (спустя 2 дня 8 часов)

[Q] 

[Профиль]  [ЛС] 

creed

Штурман

Пост 21-Июл-2013 16:44 (спустя 4 дня)

[Q] 

[Профиль]  [ЛС] 

ГИППАРРД

Корсар

2

Пост 18-Май-2018 18:37 (спустя 4 года 9 месяцев)

[Q] 

А это не та ли версия где Роберт Инглунд играет?????
[Профиль]  [ЛС] 
Показать сообщения:    
Ответить на тему

Текущее время: Сегодня 12:08

Часовой пояс: GMT + 4



Вы не можете начинать темы
Вы не можете отвечать на сообщения
Вы не можете редактировать свои сообщения
Вы не можете удалять свои сообщения
Вы не можете голосовать в опросах
Вы не можете прикреплять файлы к сообщениям
Вы не можете скачивать файлы

Майнать ▼