Сделано в Америке / American Made (Даг Лайман / Doug Liman) [2017 г., боевик, триллер, драма, комедия, криминал, биография, история, BDRip-AVC] Dub [Лицензия] + Original (Eng) + Sub (Rus, Eng)

Ответить на тему
 
Автор
Сообщение

Пост 27-Дек-2017 13:54

[Q] 

aleksey99

--Сделано в Америке / American Made--«Он обладал талантом делать деньги из воздуха»-- Производство: США / Universal Pictures, Imagine Entertainment, Cross Creek Pictures
Год выпуска: 2017 г.
Жанр: боевик, триллер, драма, комедия, криминал, биография, история
Продолжительность: 01:54:59--Мировая премьера: 18 августа 2017
Российская премьера: 12 октября 2017, «UPI»
Цифровой релиз: 07 декабря 2017, «Universal»--Перевод: Профессиональный (полное дублирование) [Лицензия Blu-ray CEE]
Оригинальный аудиопоток: английский--Режиссер: Даг Лайман / Doug Liman--В ролях: Том Круз, Донал Глисон, Сара Райт, Джесси Племонс, Калеб Лэндри Джонс, Лола Кёрк, Джейма Мейс, Алехандро Эдда, Бенито Мартинес, Э. Роджер Митчелл--Описание: Он был самым юным пилотом Боинга 747 в США, а уже через несколько лет стал одним из богатейших людей в Америке. Его стиль жизни был столь же экстремальным, как и его бизнес. Закрытые приемы, роскошные блондинки, крутые тачки и рисковые сделки. Он обладал талантом делать деньги из воздуха.-- --Качество видео: BDRip-AVC
Контейнер: MKV
Видео кодек: AVC/H.264
Аудио кодек: AC3
Видео: AVC, 1024x552 (1.852), 2727 kbps, 23,976 fps, 0.201 bpp
Аудио 1: 48 kHz, AC3 Dolby Digital, 3/2 (L,C,R,l,r) + LFE ch, ~448 kbps RUS
Аудио 2: 48 kHz, AC3 Dolby Digital, 3/2 (L,C,R,l,r) + LFE ch, ~448 kbps ENG
Cубтитры: русские (полные + форс.), английские (Full), английские (SDH), английские (SDH-Colored).
Общее
Уникальный идентификатор : 207456341725173922232277582712433851049 (0x9C12A3586F3F995EA067F34F2E48BAA9)
Полное имя : H:\Torrent2\Sdelano.v.Amerike.2017.DUAL.BDRip.x264.mkv
Формат : Matroska
Версия формата : Version 4 / Version 2
Размер файла : 2,91 Гбайт
Продолжительность : 1 ч. 54 м.
Общий поток : 3625 Кбит/сек
Название фильма : American Made (2017)
Дата кодирования : UTC 2017-12-16 02:56:26
Программа кодирования : mkvmerge v5.9.0 ('On The Loose') built on Dec 15 2012 16:39:58
Библиотека кодирования : libebml v1.3.0 + libmatroska v1.4.0
Видео
Идентификатор : 1
Формат : AVC
Формат/Информация : Advanced Video Codec
Профиль формата : [email protected]
Параметр CABAC формата : Да
Параметр ReFrames формата : 12 кадров
Идентификатор кодека : V_MPEG4/ISO/AVC
Продолжительность : 1 ч. 54 м.
Битрейт : 2727 Кбит/сек
Ширина : 1024 пикселя
Высота : 552 пикселя
Соотношение сторон : 1,85:1
Режим частоты кадров : Постоянный
Частота кадров : 23,976 (24000/1001) кадра/сек
Цветовое пространство : YUV
Субдискретизация насыщенности : 4:2:0
Битовая глубина : 8 бит
Тип развёртки : Прогрессивная
Бит/(Пиксели*Кадры) : 0.201
Размер потока : 2,13 Гбайт (73%)
Заголовок : potroks
Библиотека кодирования : x264 core 152 r2851M ba24899
Настройки программы : cabac=1 / ref=12 / deblock=1:2:2 / analyse=0x3:0x132 / me=umh / subme=11 / psy=1 / psy_rd=0.98:0.05 / mixed_ref=1 / me_range=48 / chroma_me=1 / trellis=2 / 8x8dct=1 / cqm=0 / deadzone=21,11 / fast_pskip=0 / chroma_qp_offset=-3 / threads=9 / lookahead_threads=2 / sliced_threads=0 / nr=0 / decimate=0 / interlaced=0 / bluray_compat=0 / constrained_intra=0 / bframes=13 / b_pyramid=2 / b_adapt=2 / b_bias=0 / direct=3 / weightb=1 / open_gop=0 / weightp=2 / keyint=240 / keyint_min=23 / scenecut=40 / intra_refresh=0 / rc_lookahead=0 / rc=2pass / mbtree=0 / bitrate=2727 / ratetol=1.0 / qcomp=0.70 / qpmin=0 / qpmax=69 / qpstep=4 / cplxblur=20.0 / qblur=0.5 / vbv_maxrate=50000 / vbv_bufsize=35714 / nal_hrd=none / filler=0 / ip_ratio=1.40 / pb_ratio=1.30 / aq=1:0.70
Язык : English
Default : Да
Forced : Нет
Аудио #1
Идентификатор : 2
Формат : AC-3
Формат/Информация : Audio Coding 3
Расширение режима : CM (complete main)
Параметр Endianness формата : Big
Идентификатор кодека : A_AC3
Продолжительность : 1 ч. 54 м.
Вид битрейта : Постоянный
Битрейт : 448 Кбит/сек
Каналы : 6 каналов
Расположение каналов : Front: L C R, Side: L R, LFE
Частота : 48,0 КГц
Частота кадров : 31,250 кадров/сек (1536 spf)
Метод сжатия : С потерями
Размер потока : 368 Мбайт (12%)
Заголовок : Dub | DD 5.1 @ 448 kbps - Blu-ray CEE
Язык : Russian
Default : Да
Forced : Нет
Аудио #2
Идентификатор : 3
Формат : AC-3
Формат/Информация : Audio Coding 3
Расширение режима : CM (complete main)
Параметр Endianness формата : Big
Идентификатор кодека : A_AC3
Продолжительность : 1 ч. 54 м.
Вид битрейта : Постоянный
Битрейт : 448 Кбит/сек
Каналы : 6 каналов
Расположение каналов : Front: L C R, Side: L R, LFE
Частота : 48,0 КГц
Частота кадров : 31,250 кадров/сек (1536 spf)
Метод сжатия : С потерями
Размер потока : 368 Мбайт (12%)
Заголовок : Original | DD 5.1 @ 448 kbps
Язык : English
Default : Нет
Forced : Нет
Текст #1
Идентификатор : 4
Формат : UTF-8
Идентификатор кодека : S_TEXT/UTF8
Идентификатор кодека/Информация : UTF-8 Plain Text
Заголовок : Forced
Язык : Russian
Default : Да
Forced : Нет
Текст #2
Идентификатор : 5
Формат : UTF-8
Идентификатор кодека : S_TEXT/UTF8
Идентификатор кодека/Информация : UTF-8 Plain Text
Заголовок : Blu-ray CEE
Язык : Russian
Default : Нет
Forced : Нет
Текст #3
Идентификатор : 6
Формат : UTF-8
Идентификатор кодека : S_TEXT/UTF8
Идентификатор кодека/Информация : UTF-8 Plain Text
Заголовок : Full
Язык : English
Default : Нет
Forced : Нет
Текст #4
Идентификатор : 7
Формат : UTF-8
Идентификатор кодека : S_TEXT/UTF8
Идентификатор кодека/Информация : UTF-8 Plain Text
Заголовок : SDH
Язык : English
Default : Нет
Forced : Нет
Текст #5
Идентификатор : 8
Формат : UTF-8
Идентификатор кодека : S_TEXT/UTF8
Идентификатор кодека/Информация : UTF-8 Plain Text
Заголовок : SDH-Colored
Язык : English
Default : Нет
Forced : Нет
Меню
00:00:00.000 : :Chapter 1
00:06:00.318 : :Chapter 2
00:10:42.516 : :Chapter 3
00:14:36.500 : :Chapter 4
00:21:19.611 : :Chapter 5
00:27:25.226 : :Chapter 6
00:33:47.692 : :Chapter 7
00:41:02.585 : :Chapter 8
00:46:16.023 : :Chapter 9
00:51:57.114 : :Chapter 10
00:54:59.713 : :Chapter 11
00:59:58.177 : :Chapter 12
01:07:29.837 : :Chapter 13
01:13:06.507 : :Chapter 14
01:17:12.878 : :Chapter 15
01:23:21.329 : :Chapter 16
01:26:16.713 : :Chapter 17
01:33:34.483 : :Chapter 18
01:38:39.455 : :Chapter 19
01:46:16.953 : :Chapter 20
Трейлер
Download / Скачать

Хотите скачать бесплатно? Зарегистрируйтесь на сайте (ссылка на регистрацию). Pirat.ca - самый быстрый торрент трекер в рунете!

Как скачивать  ·   Что такое торрент  ·   Рейтинг и ограничения

Pana

Корсар

Пост 27-Дек-2017 14:01 (спустя 7 минут)

[Q] 

!COOL! С наступающим!
[Профиль]  [ЛС] 

Кристина119

Гроза морей

Пост 27-Дек-2017 16:39 (спустя 2 часа 37 минут)

[Q] 

Спасибо за звук Лови бочку
[Профиль]  [ЛС] 

shelby290

Гроза морей

Пост 27-Дек-2017 21:01 (спустя 4 часа)

[Q] 

Люблю такое кино!
Автору респект!!!
[Профиль]  [ЛС] 

seva39rus

Лоцман

Пост 29-Дек-2017 02:50 (спустя 1 день 5 часов)

[Q] 

Если про 89 в 2017, то про Сирию где нибудь в 2045 снимут. Может, доживем - посмеемся.
[Профиль]  [ЛС] 

VictorSor

Шкипер

Пост 29-Дек-2017 17:44 (спустя 14 часов)

[Q] 

Почти шедевр (как Великий Гэтсби). Фильм года пожалуй ) Качают ВСЕ!!!
[Профиль]  [ЛС] 

Андрей_1979

Штурман

Пост 29-Дек-2017 23:46 (спустя 6 часов)

[Q] 

Однозначно в коллекцию! Зуб даю...
[Профиль]  [ЛС] 

tomatto

Корсар

Пост 01-Янв-2018 16:56 (спустя 2 дня 17 часов)

[Q] 

фильм на один раз )
[Профиль]  [ЛС] 

Андрей_1979

Штурман

Пост 03-Янв-2018 01:56 (спустя 1 день 8 часов)

[Q] 

815753фильм на один раз )
сам ты на один раз!
[Профиль]  [ЛС] 

tomatto

Корсар

Пост 03-Янв-2018 16:58 (спустя 15 часов)

[Q] 

Андрей_1979, ну,во-первых заштопай свой пукан, а во-вторых уважай чужое мнение. И в-третьих давай по сабжу,если могЁшь...
[Профиль]  [ЛС] 

den-71

Лоцман

Пост 03-Янв-2018 22:52 (спустя 5 часов)

[Q] 

Классный фильм.
[Профиль]  [ЛС] 

qwers1

Шкипер

Пост 03-Янв-2018 23:26 (спустя 33 минуты)

[Q] 

До конца не досмотрел,утомил слегка.
[Профиль]  [ЛС] 

msss

Корсар

Пост 04-Янв-2018 17:18 (спустя 17 часов)

[Q] 

Ну не со всеми соглашусь что шедевр. Вполне смотрибельно, но вполне утомляет. И сценарий заезжан до дыр.
[Профиль]  [ЛС] 

Полтос

Гроза морей

Пост 04-Янв-2018 18:41 (спустя 1 час 22 минуты)

[Q] 

Годное кино. Правда роль ЦРУ в наркотрафике из Никарагуа, впрочем как и сейчас из Афгана, политкорректно вычищена. А так, фильм показывает или намекает на реально осуществлявшиеся ЦРУ операции.
Мне понравилось Ку три раза

_________________
Первый закон Прапорщика: Всё что поднимаемо - относительно!)
[Профиль]  [ЛС] 

MikeB

Гроза морей

Пост 07-Янв-2018 20:36 (спустя 3 дня)

[Q] 

На любителя смотреть можно
[Профиль]  [ЛС] 

Пост 27-Янв-2018 16:43 (спустя 19 дней)

Топик был перенесен из форума Новинки (HD|DVD|BD| TV|SAT|PDTV| - Rips) в форум Фильмы 2010 - 2017 г.г.
aleksey99
 

sztksales

Морской Волк

389

Пост 28-Янв-2018 15:23 (спустя 20 дней)

[Q] 

Всем советую посмотретью Отличный фильм, смотриться на одном дыхании. Всем качать!!!

_________________
[Профиль]  [ЛС] 

Hippopotam

Флибустьер

Пост 05-Фев-2018 17:36 (спустя 8 дней)

[Q] 

Отличное, бодренькое кино. Сюжет, игра актеров, картинка, саунд - все в полном порядке. Не стоит строго судить за неправдивое (неистинное) изображение чего-то или кого-то. Это - добротное остросюжетное развлекалово Одобрямс! Лови бочку
[Профиль]  [ЛС] 

exelero07

Гроза морей

Пост 07-Мар-2018 01:01 (спустя 1 месяц 1 день)

[Q] 

Довольно таки интересное кино.
[Профиль]  [ЛС] 

Mustafa Sazont

Корсар

Пост 13-Мар-2018 15:31 (спустя 6 дней)

[Q] 

Отличное кино! Том Круз великолепно вжился в роль.
[Профиль]  [ЛС] 

the_lame

Флибустьер

Пост 19-Май-2018 12:17 (спустя 2 месяца 5 дней)

[Q] 

Здорово снято, Круз - красавчег до сих пор.
[Профиль]  [ЛС] 
Показать сообщения:    
Ответить на тему

Текущее время: Сегодня 19:48

Часовой пояс: GMT + 4



Вы не можете начинать темы
Вы не можете отвечать на сообщения
Вы не можете редактировать свои сообщения
Вы не можете удалять свои сообщения
Вы не можете голосовать в опросах
Вы не можете прикреплять файлы к сообщениям
Вы не можете скачивать файлы

Майнать ▼