[Jolly Roger] Три богатыря - Квадрология (Константин Бронзит, Илья Максимов, Владимир Торопчин, Сергей Глезин) [2004-2010 г., мультфильм, комедия, приключения, семейный, BDRip]

Ответить на тему
 
Автор
Сообщение

Пост 15-Авг-2012 18:12

[Q] 

Roger

-Три богатыря: Квадрология--Алеша Попович и Тугарин Змей-- Год выпуска: 2004 г.
Производство: Россия, Monolit
Жанр: мультфильм, комедия, приключения, семейный
Продолжительность: 01:18:46
Режиссер: Константин Бронзит
В ролях: Олег Куликович, Лия Медведева, Дмитрий Высоцкий, Анатолий Петров, Наталья Данилова, Сергей Маковецкий, Иван Краско, Татьяна Иванова, Михаил Черняк, Константин Бронзит, Елена Шульман
Описание: В древнем русском городе Ростове родился в поповской семье сын. Назвали его родители Алешей. А когда он вырос и стал богатырем, то совершил такие подвиги, что стал героем русских былин Алешей Поповичем. Только подвиги его начались с конфуза… Подступила к Ростову тугарская вражеская орда во главе с Тугарином Змеем и потребовала, чтобы жители города выплатили дань. Поповский сын предложил план действий. Народ этот план одобрил и собрал гору золота. Алеша же умудрился собственный план "благополучно" провалить, да с каким треском... --Качество видео: BDRip
Формат видео: MKV
Видео кодек: H.264
Аудио кодек: AC3
Видео: 2277 kbps, 1024x544, 23.976 fps
Аудио: 384 kbps, 6 ch, 48 kHz
General
Unique ID : 184982539444100785863116250836053282984 (0x8B2A57584159E43AB037B36BF28850A8)
Complete name : /Users/jollyroger/Movies/MyRips/Tri.Bogatyrja.Quadrology.x264.JRG/Alesha.Popovich.2004.BDRip.x264.JRG.mkv
Format : Matroska
Format version : Version 2
File size : 1.47 GiB
Duration : 1h 18mn
Overall bit rate : 2 661 Kbps
Encoded date : UTC 2011-01-23 03:36:18
Writing application : mkvmerge v4.4.0 ('Die Wiederkehr') сборка от Dec 25 2010 23:32:50
Writing library : libebml v1.0.0 + libmatroska v1.0.0
Video
ID : 1
Format : AVC
Format/Info : Advanced Video Codec
Format profile : [email protected]
Format settings, CABAC : Yes
Format settings, ReFrames : 8 frames
Codec ID : V_MPEG4/ISO/AVC
Duration : 1h 18mn
Bit rate : 2 277 Kbps
Width : 1 024 pixels
Height : 544 pixels
Display aspect ratio : 1.882
Frame rate : 23.976 fps
Color space : YUV
Chroma subsampling : 4:2:0
Bit depth : 8 bits
Scan type : Progressive
Bits/(Pixel*Frame) : 0.170
Stream size : 1.22 GiB (84%)
Writing library : x264 core 112 r1834 a51816a
Encoding settings : cabac=1 / ref=8 / deblock=1:-2:-1 / analyse=0x3:0x113 / me=umh / subme=9 / psy=1 / psy_rd=1.10:0.20 / mixed_ref=1 / me_range=32 / chroma_me=1 / trellis=2 / 8x8dct=1 / cqm=0 / deadzone=21,11 / fast_pskip=0 / chroma_qp_offset=-3 / threads=6 / sliced_threads=0 / nr=0 / decimate=1 / interlaced=0 / constrained_intra=0 / bframes=3 / b_pyramid=2 / b_adapt=2 / b_bias=0 / direct=3 / weightb=1 / open_gop=0 / weightp=2 / keyint=250 / keyint_min=23 / scenecut=40 / intra_refresh=0 / rc_lookahead=60 / rc=2pass / mbtree=1 / bitrate=2277 / ratetol=1.0 / qcomp=0.60 / qpmin=0 / qpmax=51 / qpstep=4 / cplxblur=20.0 / qblur=0.5 / ip_ratio=1.40 / aq=1:1.00
Default : Yes
Forced : No
Audio
ID : 2
Format : AC-3
Format/Info : Audio Coding 3
Mode extension : CM (complete main)
Format settings, Endianness : Big
Codec ID : A_AC3
Duration : 1h 18mn
Bit rate mode : Constant
Bit rate : 384 Kbps
Channel(s) : 6 channels
Channel positions : Front: L C R, Side: L R, LFE
Sampling rate : 48.0 KHz
Bit depth : 16 bits
Compression mode : Lossy
Stream size : 217 MiB (14%)
Default : Yes
Forced : No
--Добрыня Никитич и Змей Горыныч-- Год выпуска: 2006 г.
Производство: Россия, Monolit
Жанр: мультфильм, комедия, приключения, семейный
Продолжительность: 01:08:08
Режиссер: Илья Максимов
В ролях: Сергей Маковецкий, Валерий Соловьев, Юрий Тарасов, Андрей Толубеев, Екатерина Гороховская, Наталья Данилова
Описание: Эта увлекательная история, снятая в жанре сказки-комедии, продолжает цикл анимационных фильмов о былинных богатырях, начало которому положил мультипликационный суперблокбастер "Алеша Попович и Тугарин Змей".
Не перевелись еще богатыри на земле русской! И один из них - доблестный воин Добрыня Никитич, состоящий на службе у Князя Киевского. И, казалось бы, кому, как не Добрыне Никитичу, должен поручить Князь непростую задачу - спасти Забаву из когтистых лап похитившего ее Змея Горыныча? Нелегко, ох нелегко придется Добрыне и его юному ученику Елисею...
--Качество видео: BDRip
Формат видео: MKV
Видео кодек: H.264
Аудио кодек: AC3
Видео: 2668 kbps, 1024x544, 23.976 fps
Аудио: 384 kbps, 6 ch, 48 kHz
General
Unique ID : 236344046770746799364316798882929099951 (0xB1CE352ADDDFC28590AD3EDC23CAC4AF)
Complete name : /Users/jollyroger/Movies/MyRips/Tri.Bogatyrja.Quadrology.x264.JRG/Dobrinja.Nikitich.2006.BDRip.x264.JRG.mkv
Format : Matroska
Format version : Version 2
File size : 1.46 GiB
Duration : 1h 8mn
Overall bit rate : 3 067 Kbps
Encoded date : UTC 2011-01-23 12:19:51
Writing application : mkvmerge v4.4.0 ('Die Wiederkehr') сборка от Dec 25 2010 23:32:50
Writing library : libebml v1.0.0 + libmatroska v1.0.0
Video
ID : 1
Format : AVC
Format/Info : Advanced Video Codec
Format profile : [email protected]
Format settings, CABAC : Yes
Format settings, ReFrames : 8 frames
Codec ID : V_MPEG4/ISO/AVC
Duration : 1h 8mn
Bit rate : 2 686 Kbps
Width : 1 024 pixels
Height : 544 pixels
Display aspect ratio : 1.882
Frame rate : 23.976 fps
Color space : YUV
Chroma subsampling : 4:2:0
Bit depth : 8 bits
Scan type : Progressive
Bits/(Pixel*Frame) : 0.201
Stream size : 1.25 GiB (85%)
Writing library : x264 core 112 r1834 a51816a
Encoding settings : cabac=1 / ref=8 / deblock=1:-2:-1 / analyse=0x3:0x113 / me=umh / subme=9 / psy=1 / psy_rd=1.10:0.20 / mixed_ref=1 / me_range=32 / chroma_me=1 / trellis=2 / 8x8dct=1 / cqm=0 / deadzone=21,11 / fast_pskip=0 / chroma_qp_offset=-3 / threads=6 / sliced_threads=0 / nr=0 / decimate=1 / interlaced=0 / constrained_intra=0 / bframes=3 / b_pyramid=2 / b_adapt=2 / b_bias=0 / direct=3 / weightb=1 / open_gop=0 / weightp=2 / keyint=250 / keyint_min=23 / scenecut=40 / intra_refresh=0 / rc_lookahead=60 / rc=2pass / mbtree=1 / bitrate=2686 / ratetol=1.0 / qcomp=0.60 / qpmin=0 / qpmax=51 / qpstep=4 / cplxblur=20.0 / qblur=0.5 / ip_ratio=1.40 / aq=1:1.00
Default : Yes
Forced : No
Audio
ID : 2
Format : AC-3
Format/Info : Audio Coding 3
Mode extension : CM (complete main)
Format settings, Endianness : Big
Codec ID : A_AC3
Duration : 1h 8mn
Bit rate mode : Constant
Bit rate : 384 Kbps
Channel(s) : 6 channels
Channel positions : Front: L C R, Side: L R, LFE
Sampling rate : 48.0 KHz
Bit depth : 16 bits
Compression mode : Lossy
Stream size : 187 MiB (13%)
Default : Yes
Forced : No
--Илья Муромец и Соловей Разбойник-- Год выпуска: 2007 г.
Производство: Россия, Monolit
Жанр: мультфильм, комедия, приключения, семейный
Продолжительность: 01:19:31
Режиссер: Владимир Торопчин
В ролях: Олег Табаков, Анатолий Петров, Сергей Маковецкий, Валерий Соловьев, Екатерина Гороховская, Андрей ТолубеевОлег Табаков, Анатолий Петров, Сергей Маковецкий, Валерий Соловьев, Екатерина Гороховская, Андрей Толубеев
Описание: Славится земля русская богатырями богатырскими да разбойниками разбойничьими… А сверху всего князь княжеский сидит, за всем следит и порядок наводит, если нужно. Да только не всегда выходит у князя так, как нужно — правильно. Вот и сейчас — с богатырём поругался, да от Соловья Разбойника урон потерпел немалый: увёл бандит окаянный казну государственную прямо из-под носа!
Что делать князю? А ничего особенного — на то он и князь, чтоб из любой ситуации выход найти! Вот и отправились князь с Ильёй на поиски похищенного, а за ними вслед увязалась корреспондентка летописи «Новая береста». А дорога непростая выдалась, до самого Царьграда довела, где встретил их Император Византийский, да только незадача вышла — повздорили наши герои с императором этим, и заключил он против Князя Киевского и Земель русских союз с Соловьем Разбойником…
--Качество видео: BDRip
Формат видео: MKV
Видео кодек: H.264
Аудио кодек: AC3
Видео: 2250 kbps, 1024x544, 23.976 fps
Аудио: 384 kbps, 6 ch, 48 kHz
General
Unique ID : 226916006053000390693024346555741104196 (0xAAB66EDF1B0F66199C681AD70FE7E844)
Complete name : /Users/jollyroger/Movies/MyRips/Tri.Bogatyrja.Quadrology.x264.JRG/Ilya.Muromets.2007.BDRip.x264.JRG.mkv
Format : Matroska
Format version : Version 2
File size : 1.46 GiB
Duration : 1h 19mn
Overall bit rate : 2 635 Kbps
Encoded date : UTC 2011-01-23 19:21:02
Writing application : mkvmerge v4.4.0 ('Die Wiederkehr') сборка от Dec 25 2010 23:32:50
Writing library : libebml v1.0.0 + libmatroska v1.0.0
Video
ID : 1
Format : AVC
Format/Info : Advanced Video Codec
Format profile : [email protected]
Format settings, CABAC : Yes
Format settings, ReFrames : 8 frames
Codec ID : V_MPEG4/ISO/AVC
Duration : 1h 19mn
Bit rate : 2 250 Kbps
Width : 1 024 pixels
Height : 544 pixels
Display aspect ratio : 1.882
Frame rate : 23.976 fps
Color space : YUV
Chroma subsampling : 4:2:0
Bit depth : 8 bits
Scan type : Progressive
Bits/(Pixel*Frame) : 0.168
Stream size : 1.22 GiB (83%)
Writing library : x264 core 112 r1834 a51816a
Encoding settings : cabac=1 / ref=8 / deblock=1:-2:-1 / analyse=0x3:0x113 / me=umh / subme=9 / psy=1 / psy_rd=1.10:0.20 / mixed_ref=1 / me_range=32 / chroma_me=1 / trellis=2 / 8x8dct=1 / cqm=0 / deadzone=21,11 / fast_pskip=0 / chroma_qp_offset=-3 / threads=6 / sliced_threads=0 / nr=0 / decimate=1 / interlaced=0 / constrained_intra=0 / bframes=3 / b_pyramid=2 / b_adapt=2 / b_bias=0 / direct=3 / weightb=1 / open_gop=0 / weightp=2 / keyint=250 / keyint_min=23 / scenecut=40 / intra_refresh=0 / rc_lookahead=60 / rc=2pass / mbtree=1 / bitrate=2250 / ratetol=1.0 / qcomp=0.60 / qpmin=0 / qpmax=51 / qpstep=4 / cplxblur=20.0 / qblur=0.5 / ip_ratio=1.40 / aq=1:1.00
Default : Yes
Forced : No
Audio
ID : 2
Format : AC-3
Format/Info : Audio Coding 3
Mode extension : CM (complete main)
Format settings, Endianness : Big
Codec ID : A_AC3
Duration : 1h 19mn
Bit rate mode : Constant
Bit rate : 384 Kbps
Channel(s) : 6 channels
Channel positions : Front: L C R, Side: L R, LFE
Sampling rate : 48.0 KHz
Bit depth : 16 bits
Compression mode : Lossy
Stream size : 218 MiB (15%)
Default : Yes
Forced : No
--Три богатыря и Шамаханская царица-- Год выпуска: 2010 г.
Производство: Россия, Monolit
Жанр: мультфильм, комедия, приключения, семейный
Продолжительность: 01:13:28
Режиссер: Сергей Глезин
В ролях: Валерий Соловьев, Анна Геллер, Олег Куликович, Лия Медведева, Сергей Маковецкий, Константин Бронзит, Дмитрий Быковский, Дмитрий Высоцкий, Мария Цветкова, Игорь Шибанов

Описание: Легендарная Шамаханская царица, которая сводила с ума многих царей и простых смертных, положила свой глаз и на Киевского князя. Тот заболел любовью странной по ней. Но чтобы доставить в целости и сохранности эту чудо-богиню в Киев-Град, срочно из отпуска вызывают всех троих, уже знакомых нам, богатырей: Алёшу Поповича, Добрыню Никитича и Илью Муромца. Теперь троица должна решить, как быть дальше? Вроде бы и слухи о царице ходят нелестные, и князя жаль. --Качество видео: BDRip
Формат видео: MKV
Видео кодек: H.264
Аудио кодек: AC3
Видео: 2350 kbps, 1024x544, 23.976 fps
Аудио: 384 kbps, 6 ch, 48 kHz
General
Unique ID : 192591790879781654660102457466137345600 (0x90E3D467DD6E65D8B0BB223C5943FE40)
Complete name : /Users/jollyroger/Movies/MyRips/Tri.Bogatyrja.Quadrology.x264.JRG/Tri.bogatyrya.2010.BDRip.x264.JRG.mkv
Format : Matroska
Format version : Version 2
File size : 1.46 GiB
Duration : 1h 16mn
Overall bit rate : 2 734 Kbps
Encoded date : UTC 2011-01-29 02:35:27
Writing application : mkvmerge v4.4.0 ('Die Wiederkehr') сборка от Dec 25 2010 23:32:50
Writing library : libebml v1.0.0 + libmatroska v1.0.0
Video
ID : 1
Format : AVC
Format/Info : Advanced Video Codec
Format profile : [email protected]
Format settings, CABAC : Yes
Format settings, ReFrames : 8 frames
Codec ID : V_MPEG4/ISO/AVC
Duration : 1h 16mn
Bit rate : 2 350 Kbps
Width : 1 024 pixels
Height : 576 pixels
Display aspect ratio : 16:9
Frame rate : 24.000 fps
Color space : YUV
Chroma subsampling : 4:2:0
Bit depth : 8 bits
Scan type : Progressive
Bits/(Pixel*Frame) : 0.166
Stream size : 1.23 GiB (84%)
Writing library : x264 core 112 r1834 a51816a
Encoding settings : cabac=1 / ref=8 / deblock=1:-2:-1 / analyse=0x3:0x113 / me=umh / subme=9 / psy=1 / psy_rd=1.10:0.20 / mixed_ref=1 / me_range=32 / chroma_me=1 / trellis=2 / 8x8dct=1 / cqm=0 / deadzone=21,11 / fast_pskip=0 / chroma_qp_offset=-3 / threads=6 / sliced_threads=0 / nr=0 / decimate=1 / interlaced=0 / constrained_intra=0 / bframes=3 / b_pyramid=2 / b_adapt=2 / b_bias=0 / direct=3 / weightb=1 / open_gop=0 / weightp=2 / keyint=250 / keyint_min=24 / scenecut=40 / intra_refresh=0 / rc_lookahead=60 / rc=2pass / mbtree=1 / bitrate=2350 / ratetol=1.0 / qcomp=0.60 / qpmin=0 / qpmax=51 / qpstep=4 / cplxblur=20.0 / qblur=0.5 / ip_ratio=1.40 / aq=1:1.00
Default : Yes
Forced : No
Audio
ID : 2
Format : AC-3
Format/Info : Audio Coding 3
Mode extension : CM (complete main)
Format settings, Endianness : Big
Codec ID : A_AC3
Duration : 1h 16mn
Bit rate mode : Constant
Bit rate : 384 Kbps
Channel(s) : 6 channels
Channel positions : Front: L C R, Side: L R, LFE
Sampling rate : 48.0 KHz
Bit depth : 16 bits
Compression mode : Lossy
Stream size : 210 MiB (14%)
Default : Yes
Forced : No
-
Download / Скачать

Хотите скачать бесплатно? Зарегистрируйтесь на сайте (ссылка на регистрацию). Pirat.ca - самый быстрый торрент трекер в рунете!

Как скачивать  ·   Что такое торрент  ·   Рейтинг и ограничения

Evgeniy3102

Корсар

3

Пост 15-Авг-2012 20:30 (спустя 2 часа 17 минут)

[Q] 

Мульт отпадный ! Автору огромное спасибо !!! aa
[Профиль]  [ЛС] 

ivan836

Морской Волк

Пост 16-Авг-2012 12:03 (спустя 15 часов)

[Q] 

отлично!!!!!!
aa
[Профиль]  [ЛС] 

D.One

Штурман

Пост 20-Авг-2012 00:18 (спустя 3 дня)

[Q] 

от моих детей - большое спасибо!
[Профиль]  [ЛС] 

odyssey123

Флибустьер

Пост 21-Авг-2012 09:39 (спустя 1 день 9 часов)

[Q] 

[Профиль]  [ЛС] 

pro100userspb

Корсар

Пост 20-Сен-2012 21:38 (спустя 30 дней)

[Q] 


_________________
[Профиль]  [ЛС] 

Filimonia

Корсар

Пост 27-Сен-2012 01:32 (спустя 6 дней)

[Q] 

[Профиль]  [ЛС] 

Luzhok

Легенда

Пост 15-Янв-2013 19:13 (спустя 3 месяца 18 дней)

[Q] 

Roger
здравия!
ожидается добавка "Три богатыря на дальних берегах"?
иль в других местах искать?
[Профиль]  [ЛС] 

CHARLI2236

1230

Пост 25-Июл-2013 18:42 (спустя 6 месяцев 9 дней)

[Q] 

5

_________________
[Профиль]  [ЛС] 

Grand Zero

Морской Волк

Пост 09-Апр-2014 22:16 (спустя 8 месяцев 15 дней)

[Q] 

класс!!!!!!!!!!!!!!
[Профиль]  [ЛС] 

Antarres

Легенда

Пост 07-Окт-2014 22:23 (спустя 5 месяцев 28 дней)

[Q] 

Thanks!

_________________
[Профиль]  [ЛС] 

Dac

Шкипер

Пост 19-Окт-2014 12:30 (спустя 11 дней)

[Q] 


[Профиль]  [ЛС] 

Воффка

Морской Волк

Пост 01-Окт-2016 18:52 (спустя 1 год 11 месяцев)

[Q] 

Спасибо! Жаль, раздающие слились куда-то, но я поддержу

_________________
-= Водка, шлюхи, Death Metal!!!=-
[Профиль]  [ЛС] 

Skala973

Флибустьер

Пост 19-Май-2018 15:34 (спустя 1 год 7 месяцев)

[Q] 

Вот эти четыре серии должны были закрывать франшизу.
А теперь это на 100% рекламные мультики выходят, взять хотя бы про Египет они сняли. Как раз открыли полёты в Египет, и мультик вышел. Ну реклама в чистом виде.
Эти в коллекции, а остальные - отстой.
[Профиль]  [ЛС] 
Показать сообщения:    
Ответить на тему

Текущее время: Сегодня 18:41

Часовой пояс: GMT + 4



Вы не можете начинать темы
Вы не можете отвечать на сообщения
Вы не можете редактировать свои сообщения
Вы не можете удалять свои сообщения
Вы не можете голосовать в опросах
Вы не можете прикреплять файлы к сообщениям
Вы не можете скачивать файлы

Майнать ▼