Пирамммида (Эльдар Салаватов) [2011 г., боевик, триллер, драма, криминал, биография, BDRip, 720p]

Ответить на тему
 
Автор
Сообщение

Пост 28-Мар-2018 11:45

[Q] 

moscowpan

Гроза морей

-Пирамммида-«Афера века, о которой ты ничего не знаешь»- Производство: Леополис
Режиссёр: Эльдар Салаватов
Жанр: боевик, триллер, драма, криминал, биография
Год выпуска: 2011 г.
Продолжительность: 01:49:45
Российская премьера: 7 апреля 2011
Дата выхода DVD: 28 апреля 2011
Дата выхода Blu-Ray: 23 июня 2011-В ролях: Алексей Серебряков, Петр Федоров, Фёдор Бондарчук, Юрий Цурило, Артем Михалков, Алексей Горбунов, Анна Михалкова, Екатерина Вилкова, Даниил Спиваковский, Игорь Яцко-Описание: Россия, начало 90-х. Страна в процессе болезненного перехода от сверхцентрализованной плановой экономики к рыночным отношениям. Простые люди, прежде жившие в условиях стабильности, растеряны и перепуганы. Все пришло в движение, ход истории разворачивается на глазах. Поворотные моменты истории всегда способствуют появлению всевозможных самозванцев и талантливых мошенников.
Сергей Мамонтов ищет, куда применить себя и свой интеллект. И находит. Мамонтов заказывает макет «ценной бумаги» с имперской вязью, богатым орнаментом, водяными знаками и собственным портретом в самом центре. Своим «деньгам» он назначает цену сам и продает их по принципу: сегодня всегда дороже, чем вчера.
Началась активная рекламная кампания. Чуть больше двух недель оказалось достаточно, чтобы народ уже выстроился в очереди за «мамонтовками», а Мамонтов стал едва ли не национальным героем. И могущественные банкиры, и властные структуры в растерянности — никто не имеет понятия, как прекратить этот беспредел — а в МММ уже набралось больше 10 миллионов вкладчиков… Заговоры, похищения людей, погони, заказные убийства. И немного любви.-Качество видео: BDRip
Контейнер: MKV
Стандарт разрешения: 720p
Видео кодек: MPEG4 AVC
Аудио кодек: AC3
Видео: MPEG-4 AVC, 1280x544 (2.35:1), 7040 Kbps, 23.976 fps
Аудио: AC3, 5.1 ch, 48 kHz, 640 kbps
Cубтитры: отсутствуют
Общее
Уникальный идентификатор : 207561006496321082791722473606094811771 (0x9C26CBB79285D46FA8D80AB6211C727B)
Полное имя : Пирамммида.BDRip.720p.mkv
Формат : Matroska
Версия формата : Version 2
Размер файла : 5,88 Гбайт
Продолжительность : 1 ч. 49 м.
Общий поток : 7675 Кбит/сек
Название фильма : Пирамммида.BDRip.720p
Дата кодирования : UTC 2018-01-19 17:33:20
Программа кодирования : mkvmerge v5.8.0 ('No Sleep / Pillow') built on Sep 2 2012 15:37:04
Библиотека кодирования : libebml v1.2.3 + libmatroska v1.3.0
Видео
Идентификатор : 1
Формат : AVC
Формат/Информация : Advanced Video Codec
Профиль формата : [email protected]
Параметр CABAC формата : Да
Параметр RefFrames формата : 11 кадров
Идентификатор кодека : V_MPEG4/ISO/AVC
Продолжительность : 1 ч. 49 м.
Битрейт : 7040 Кбит/сек
Ширина : 1280 пикселей
Высота : 544 пикселя
Соотношение сторон : 2,35:1
Режим частоты кадров : Постоянный
Частота кадров : 23,976 (24000/1001) кадра/сек
Цветовое пространство : YUV
Субдискретизация насыщенности : 4:2:0
Битовая глубина : 8 бит
Тип развёртки : Прогрессивная
Бит/(Пиксели*Кадры) : 0.422
Размер потока : 5,28 Гбайт (90%)
Библиотека кодирования : x264 core 115 r1995 c1e60b9
Настройки программы : cabac=1 / ref=11 / deblock=1:-3:-3 / analyse=0x3:0x113 / me=umh / subme=10 / psy=1 / psy_rd=1.10:0.00 / mixed_ref=1 / me_range=32 / chroma_me=1 / trellis=2 / 8x8dct=1 / cqm=0 / deadzone=21,11 / fast_pskip=0 / chroma_qp_offset=-2 / threads=12 / sliced_threads=0 / nr=0 / decimate=0 / interlaced=0 / bluray_compat=0 / constrained_intra=0 / bframes=12 / b_pyramid=2 / b_adapt=2 / b_bias=0 / direct=3 / weightb=1 / open_gop=0 / weightp=2 / keyint=250 / keyint_min=23 / scenecut=40 / intra_refresh=0 / rc_lookahead=60 / rc=2pass / mbtree=0 / bitrate=7040 / ratetol=1.0 / qcomp=0.60 / qpmin=0 / qpmax=69 / qpstep=4 / cplxblur=20.0 / qblur=0.5 / vbv_maxrate=50000 / vbv_bufsize=62500 / nal_hrd=none / ip_ratio=1.40 / pb_ratio=1.30 / aq=1:0.80
Язык : Russian
Default : Да
Forced : Нет
Цветовой диапазон : Limited
Коэффициенты матрицы : BT.709
Аудио
Идентификатор : 2
Формат : AC-3
Формат/Информация : Audio Coding 3
Параметр Endianness формата : Big
Идентификатор кодека : A_AC3
Продолжительность : 1 ч. 49 м.
Вид битрейта : Постоянный
Битрейт : 640 Кбит/сек
Каналы : 6 каналов
Расположение каналов : Front: L C R, Side: L R, LFE
Частота : 48,0 КГц
Частота кадров : 31,250 кадров/сек (1536 SPF)
Битовая глубина : 16 бит
Метод сжатия : С потерями
Размер потока : 502 Мбайт (8%)
Заголовок : Оригинал, Blu-ray RUS
Язык : Russian
Default : Да
Forced : Нет
Меню
00:00:00.000 : :00:00:00.000
00:06:29.973 : :00:06:29.973
00:14:45.551 : :00:14:45.551
00:21:46.889 : :00:21:46.889
00:28:05.642 : :00:28:05.642
00:35:59.824 : :00:35:59.824
00:41:38.830 : :00:41:38.830
00:46:57.106 : :00:46:57.106
00:53:27.246 : :00:53:27.246
01:02:08.558 : :01:02:08.558
01:07:37.095 : :01:07:37.095
01:14:19.830 : :01:14:19.830
01:23:23.457 : :01:23:23.457
01:29:22.274 : :01:29:22.274
01:35:54.207 : :01:35:54.207
01:45:00.461 : :01:45:00.461
Download / Скачать

Хотите скачать бесплатно? Зарегистрируйтесь на сайте (ссылка на регистрацию). Pirat.ca - самый быстрый торрент трекер в рунете!

Как скачивать  ·   Что такое торрент  ·   Рейтинг и ограничения

Alejandro64

Штурман

Пост 28-Мар-2018 21:44 (спустя 9 часов)

[Q] 

Весь фильм тащит на себе Серебряков. Все остальное уныло.
[Профиль]  [ЛС] 

Mustafa Sazont

Корсар

Пост 11-Май-2018 14:15 (спустя 1 месяц 13 дней)

[Q] 

Мавроди крякнул. Фильм нудятина. Можно и не смотреть.
[Профиль]  [ЛС] 

moscowpan ®

Гроза морей

4440

Пост 22-Май-2018 21:15 (спустя 11 дней)

[Q] 

"крякнут" рано или поздно все. Но фильм для понимания истории посмотреть можно, особенно новому поколению, которе не знает всего.

_________________
[Профиль]  [ЛС] 
Показать сообщения:    
Ответить на тему

Текущее время: Сегодня 22:00

Часовой пояс: GMT + 4



Вы не можете начинать темы
Вы не можете отвечать на сообщения
Вы не можете редактировать свои сообщения
Вы не можете удалять свои сообщения
Вы не можете голосовать в опросах
Вы не можете прикреплять файлы к сообщениям
Вы не можете скачивать файлы

Майнать ▼