Они-Тэнсэй - Дьявольская коллекция / Oni Tensei: Demon's Collection/Oni Tensei (Nobuhiro Kondo/Кондо Нобухиро) [1-4 из 4] [Uncen] [2000] [RUS] [Demons, Fantasy, Rape, Anal, Violence, Yuri, Futanari] [DVDRip]

Ответить на тему
 
Автор
Сообщение

Пост 08-Ноя-2011 19:24

[Q] 

NINJA_MASTER

Они-Тэнсэй - Дьявольская коллекция / Oni Tensei: Demon's Collection/Oni Tensei- Год выпуска: 2000
Страна: Япония
Жанр: Demons, Fantasy, Rape, Anal, Violence, Yuri, Futanari
Тип: OVA
Продолжительность: 4 эпизода по ~25 минут
Время: 01:41:03
Язык: Русский
Перевод: Любительский (одноголосый)
Цензура: Отсутствует
Режиссер: Nobuhiro Kondo/Кондо Нобухиро
Студия: Green Bunny, AIC, Studio Gazelle, Kitty Media
В ролях: Anime персонажи.-Описание: Детектив Рейко Куре расследует странную массовую резню. Тринадцать членов мафиозной группировки были растерзаны, а на месте преступления была найдена только девочка Эмма Нозоми с огромной татуировкой на спине. В течение расследования выясняется, что каждый мужчина, который пытался заняться сексом с Эммой, был зверски убит, а каждая женщина беспощадно изнасилована. Пройдя с ней все испытания, разгадав ее тайну и приняв Эмму такуой, какая она есть, Рейко влюбляется в нее и берет ее под свою опеку.-
General
Complete name : E:\TORENT\Они Тенсей\Они Тенсей - дьявольская татуировка.avi
Format : AVI
Format/Info : Audio Video Interleave
File size : 824 MiB
Duration : 1h 41mn
Overall bit rate : 1 140 Kbps
Video
ID : 0
Format : MPEG-4 Visual
Format settings, BVOP : 1
Format settings, QPel : No
Format settings, GMC : No warppoints
Format settings, Matrix : Default (H.263)
Muxing mode : Packed bitstream
Codec ID : DX50
Codec ID/Hint : DivX 5
Duration : 1h 41mn
Bit rate : 998 Kbps
Width : 640 pixels
Height : 480 pixels
Display aspect ratio : 4:3
Frame rate : 29.970 fps
Color space : YUV
Chroma subsampling : 4:2:0
Bit depth : 8 bits
Scan type : Progressive
Compression mode : Lossy
Bits/(Pixel*Frame) : 0.108
Stream size : 721 MiB (88%)
Title : Video
Writing library : DivX 5.2.1 Alpha (UTC 2004-09-08)
Audio
ID : 1
Format : MPEG Audio
Format version : Version 1
Format profile : Layer 3
Mode : Joint stereo
Mode extension : MS Stereo
Codec ID : 55
Codec ID/Hint : MP3
Duration : 1h 41mn
Bit rate mode : Variable
Bit rate : 128 Kbps
Channel(s) : 2 channels
Sampling rate : 44.1 KHz
Compression mode : Lossy
Stream size : 93.1 MiB (11%)
Alignment : Aligned on interleaves
Interleave, duration : 26 ms (0.78 video frame)
Interleave, preload duration : 475 ms
Title : Audio
-Качество: DVDRip
Формат: AVI
Видео кодек: DivX
Аудио кодек: MP3
Видео: DivX 5 640x480 29,97fps 997Kbps
Аудио: MPEG Audio Layer 3 44100Hz stereo 128Kbps-
Download / Скачать

Хотите скачать бесплатно? Зарегистрируйтесь на сайте (ссылка на регистрацию). Pirat.ca - самый быстрый торрент трекер в рунете!

Как скачивать  ·   Что такое торрент  ·   Рейтинг и ограничения

KUDEYR

Штурман

7

Пост 24-Ноя-2011 21:39 (спустя 16 дней)

[Q] 

Спасибо,поглядим.
[Профиль]  [ЛС] 

ьщкщяму

Шкипер

Пост 09-Июн-2012 20:37 (спустя 6 месяцев 14 дней)

[Q] 

[Профиль]  [ЛС] 

fishman

Флибустьер

Пост 20-Июл-2012 00:34 (спустя 1 месяц 10 дней)

[Q] 


Рому в трюм отсыпал!

_________________
|___|___|___|___|___|___|___|__|__
__|__|__|_Биться головой_|___|___|
|___|___|___|__сюда!!___|___|__|__
__|___|___|___|___|___|___|__|__
[Профиль]  [ЛС] 

S_N_A_K_E

Флибустьер

Пост 27-Ноя-2012 09:15 (спустя 4 месяца 7 дней)

[Q] 

[Профиль]  [ЛС] 

Old Evil

Штурман

Пост 23-Май-2018 15:26 (спустя 5 лет 5 месяцев)

[Q] 

Спасибо!!!
[Профиль]  [ЛС] 
Показать сообщения:    
Ответить на тему

Текущее время: Сегодня 18:40

Часовой пояс: GMT + 4



Вы не можете начинать темы
Вы не можете отвечать на сообщения
Вы не можете редактировать свои сообщения
Вы не можете удалять свои сообщения
Вы не можете голосовать в опросах
Вы не можете прикреплять файлы к сообщениям
Вы не можете скачивать файлы

Майнать ▼