[Hentai] Один Кусок хентай / One Piece Hentai (неизвестен) [OVA] [1 из 1] [uncen] [2004] [DVDRip] [Hentai, Sex, Blowjob] [480p] [JAP]

Ответить на тему
 
Автор
Сообщение

Пост 20-Апр-2012 09:34

[Q] 

NINJA_MASTER

Один Кусок хентай / One Piece Hentai Год выпуска: 2004
Страна: Япония
Жанр: Hentai, Sex, Blowjob
Продолжительность: 04:10
Тип: OVA (OAV)
Озвучка: Японская
Субтитры: отсутствуют
Режиссер: неизвестен
Описание: Hentai Video Clip with Nami, Nico Robin and Luffy!
Anime Info:
One Piece (Уан Пис, яп. ワ ン ピ ー ス Ван Пису) — манга Эйитиро Оды и её аниме-адаптации: OVA, телесериал, десять полнометражных фильмов. Так же, под маркой One Piece выпущено около трёх десятков игр для различных игровых приставок.
One Piece повествует о приключениях команды пиратов, во главе с капитаном Монки Д. Луффи, цель которого — найти величайшее сокровище мира, «One Piece» и стать новым «королём пиратов».
Источник: DVDRip
Формат: AVI
Видео кодек: DivX
Видео: DIVX 640x480 29.97fps 3146Kbps
Аудио JAP: MP3 MPEG Audio Layer 3 44100Hz stereo 320Kbps
General
Complete name : E:\TORENT\one piece\One_Piece_H.avi
Format : AVI
Format/Info : Audio Video Interleave
File size : 104 MiB
Duration : 4mn 10s
Overall bit rate : 3 478 Kbps
Movie name : NoSubject_13.08.2008
Writing application : Lavf51.17.0
Video
ID : 0
Format : MPEG-4 Visual
Format profile : Simple@L1
Format settings, BVOP : No
Format settings, QPel : No
Format settings, GMC : No warppoints
Format settings, Matrix : Default (H.263)
Codec ID : DIVX
Codec ID/Info : Project Mayo
Codec ID/Hint : DivX 4
Duration : 4mn 10s
Bit rate : 3 147 Kbps
Width : 640 pixels
Height : 480 pixels
Display aspect ratio : 16:9
Frame rate : 29.970 fps
Color space : YUV
Chroma subsampling : 4:2:0
Bit depth : 8 bits
Scan type : Progressive
Compression mode : Lossy
Bits/(Pixel*Frame) : 0.342
Stream size : 93.8 MiB (90%)
Writing library : Lavc51.47.0
Audio
ID : 1
Format : MPEG Audio
Format version : Version 1
Format profile : Layer 3
Mode : Joint stereo
Mode extension : MS Stereo
Codec ID : 55
Codec ID/Hint : MP3
Duration : 4mn 10s
Bit rate mode : Constant
Bit rate : 320 Kbps
Channel(s) : 2 channels
Sampling rate : 44.1 KHz
Compression mode : Lossy
Stream size : 9.55 MiB (9%)
Alignment : Aligned on interleaves
Interleave, duration : 26 ms (0.78 video frame)
Interleave, preload duration : 26 ms
Writing library : LAME3.97
-
-
Download / Скачать

Хотите скачать бесплатно? Зарегистрируйтесь на сайте (ссылка на регистрацию). Pirat.ca - самый быстрый торрент трекер в рунете!

Как скачивать  ·   Что такое торрент  ·   Рейтинг и ограничения

Пост 20-Апр-2012 13:17 (спустя 3 часа)

Топик был перенесен из форума Аниме (Видео) в форум Хентай (Основной раздел)

bota_nik
 

Keyras

Лоцман

Пост 01-Май-2012 11:51 (спустя 11 дней)

[Q] 

нужно больше скорости!!!
[Профиль]  [ЛС] 

Ваныч

Штурман

Пост 14-Ноя-2012 16:52 (спустя 6 месяцев 13 дней)

[Q] 

карец. На пиратке и нет самого пиратского аниме. Ну кроме вот этого
[Профиль]  [ЛС] 

Old Evil

Штурман

Пост 23-Май-2018 15:33 (спустя 5 лет 6 месяцев)

[Q] 

Раздавать будем или как?
[Профиль]  [ЛС] 
Показать сообщения:    
Ответить на тему

Текущее время: Сегодня 21:28

Часовой пояс: GMT + 4



Вы не можете начинать темы
Вы не можете отвечать на сообщения
Вы не можете редактировать свои сообщения
Вы не можете удалять свои сообщения
Вы не можете голосовать в опросах
Вы не можете прикреплять файлы к сообщениям
Вы не можете скачивать файлы

Майнать ▼