Гоголь. Начало (Егор Баранов) [2017 г., приключения, триллер, детектив, BDRip-AVC] Original (RUS)[Лицензия]

Ответить на тему
 
Автор
Сообщение

Пост 06-Янв-2018 15:46

[Q] 

aleksey99

--Гоголь. Начало--«Самая тёмная ночь перед рассветом»-- Производство: Россия
Год выпуска: 2017 г.
Жанр: приключения, триллер, детектив
Продолжительность: 01:46:47--Российская премьера: 31 августа 2017, «Каропрокат»
Цифровой релиз: 01 октября 2017, «ГПМ РТВ»
Дата выхода DVD: 13 ноября 2017, «НД Плэй»
Дата выхода Blu-Ray: 13 ноября 2017, «НД Плэй»--Режиссер: Егор Баранов--В ролях: Александр Петров, Олег Меньшиков, Евгений Стычкин, Таисия Вилкова, Артем Ткаченко, Юлия Франц, Евгений Сытый, Ян Цапник, Сергей Бадюк, Марта Тимофеева, Светлана Киреева, Артем Сучков--Описание: Казаки, ведьмы, русалки, утопленницы и другие обитатели Диканьки встречаются лицом к лицу со своим создателем Николаем Гоголем, молодым писарем из Петербурга, который страдает загадочными припадками и может общаться с персонажами из потустороннего мира. Вместе со своим начальником, блестящим столичным следователем Яковом Гуро, начинающий писатель приезжает на Полтавщину расследовать таинственные убийства девушек. Здесь же он встречает свою любовь, которой суждено сыграть роковую роль в его судьбе. Но хватит ли юному литератору духу противостоять невообразимому? Ведь по слухам, которые активно разносят напуганные местные жители, за преступлениями стоит не кто иной, как сам Дьявол в обличии черного всадника.-- --Качество видео: BDRip-AVC
Контейнер: MKV
Видео кодек: H.264
Аудио кодек: AC3
Видео: AVC at 1510 Кбит/сек, 1012x424 (2.40:1) at 24,000 fps
Аудио: 48 kHz, AC3 Dolby Digital, 3/2 (L,C,R,l,r) + LFE ch, ~448 kbps
Cубтитры: отсутствуют
Общее
Уникальный идентификатор : 208659149620178882777851924676069441407 (0x9CFA4A5A6EAD6B8FA7B401CBD0463F7F)
Полное имя : H:\Torrent2\Gogol.Nachalo.2017.RUS.BDRip.x264.mkv
Формат : Matroska
Версия формата : Version 4 / Version 2
Размер файла : 1,46 Гбайт
Продолжительность : 1 ч. 46 м.
Общий поток : 1951 Кбит/сек
Название фильма : Гоголь. Начало (2017)
Дата кодирования : UTC 2017-11-18 20:41:12
Программа кодирования : mkvmerge v5.9.0 ('On The Loose') built on Dec 15 2012 16:39:58
Библиотека кодирования : libebml v1.3.0 + libmatroska v1.4.0
Видео
Идентификатор : 1
Формат : AVC
Формат/Информация : Advanced Video Codec
Профиль формата : High@L4.1
Параметр CABAC формата : Да
Параметр ReFrames формата : 11 кадров
Идентификатор кодека : V_MPEG4/ISO/AVC
Продолжительность : 1 ч. 46 м.
Битрейт : 1510 Кбит/сек
Ширина : 1012 пикселей
Высота : 424 пикселя
Соотношение сторон : 2,40:1
Режим частоты кадров : Постоянный
Частота кадров : 24,000 кадра/сек
Цветовое пространство : YUV
Субдискретизация насыщенности : 4:2:0
Битовая глубина : 8 бит
Тип развёртки : Прогрессивная
Бит/(Пиксели*Кадры) : 0.147
Размер потока : 1,09 Гбайт (75%)
Заголовок : potroks
Библиотека кодирования : x264 core 152 r2851M ba24899
Настройки программы : cabac=1 / ref=11 / deblock=1:-1:-1 / analyse=0x3:0x132 / me=umh / subme=11 / psy=1 / psy_rd=1.00:0.05 / mixed_ref=1 / me_range=48 / chroma_me=1 / trellis=2 / 8x8dct=1 / cqm=0 / deadzone=21,11 / fast_pskip=0 / chroma_qp_offset=-3 / threads=9 / lookahead_threads=2 / sliced_threads=0 / nr=0 / decimate=0 / interlaced=0 / bluray_compat=0 / constrained_intra=0 / bframes=12 / b_pyramid=2 / b_adapt=2 / b_bias=0 / direct=3 / weightb=1 / open_gop=0 / weightp=2 / keyint=240 / keyint_min=23 / scenecut=40 / intra_refresh=0 / rc_lookahead=0 / rc=2pass / mbtree=0 / bitrate=1510 / ratetol=1.0 / qcomp=0.70 / qpmin=0 / qpmax=69 / qpstep=4 / cplxblur=20.0 / qblur=0.5 / vbv_maxrate=50000 / vbv_bufsize=35714 / nal_hrd=none / filler=0 / ip_ratio=1.40 / pb_ratio=1.30 / aq=1:0.80
Язык : Russian
Default : Да
Forced : Нет
Аудио
Идентификатор : 2
Формат : AC-3
Формат/Информация : Audio Coding 3
Расширение режима : CM (complete main)
Параметр Endianness формата : Big
Идентификатор кодека : A_AC3
Продолжительность : 1 ч. 46 м.
Вид битрейта : Постоянный
Битрейт : 448 Кбит/сек
Каналы : 6 каналов
Расположение каналов : Front: L C R, Side: L R, LFE
Частота : 48,0 КГц
Частота кадров : 31,250 кадров/сек (1536 spf)
Метод сжатия : С потерями
Размер потока : 342 Мбайт (23%)
Заголовок : DD 5.1 @ 448 kbps - Blu-ray RUS
Язык : Russian
Default : Да
Forced : Нет
Меню
00:00:00.000 : en:(01)00:00:00:000
00:00:25.916 : en:(02)00:00:25:916
00:14:02.208 : en:(03)00:14:02:208
00:27:17.041 : en:(04)00:27:17:041
00:40:22.375 : en:(05)00:40:22:375
00:54:57.291 : en:(06)00:54:57:291
01:06:34.458 : en:(07)01:06:34:458
01:17:57.500 : en:(08)01:17:57:500
01:30:44.083 : en:(09)01:30:44:083
Трейлер
Download / Скачать

Хотите скачать бесплатно? Зарегистрируйтесь на сайте (ссылка на регистрацию). Pirat.ca - самый быстрый торрент трекер в рунете!

Как скачивать  ·   Что такое торрент  ·   Рейтинг и ограничения

Кристина119

Гроза морей

Пост 06-Янв-2018 17:54 (спустя 2 часа 7 минут)

[Q] 

Спасибо, посмотрю в качестве Лови бочку
[Профиль]  [ЛС] 

bnm

Морской Волк

Пост 08-Янв-2018 02:15 (спустя 1 день 8 часов)

[Q] 

Спасибо!!!
[Профиль]  [ЛС] 

bnm

Морской Волк

Пост 12-Янв-2018 14:50 (спустя 4 дня)

[Q] 

Спасибо!!! Лови бочку
[Профиль]  [ЛС] 

xxx4ervxxx

Морской Волк

Пост 15-Янв-2018 20:51 (спустя 3 дня)

[Q] 

Спасибо!!! Лови бочку
[Профиль]  [ЛС] 

alersander

Корсар

Пост 26-Май-2018 20:18 (спустя 4 месяца 10 дней)

[Q] 

Хороший фильм Всем качать!!! Лови бочку
[Профиль]  [ЛС] 
Показать сообщения:    
Ответить на тему

Текущее время: Сегодня 06:00

Часовой пояс: GMT + 4



Вы не можете начинать темы
Вы не можете отвечать на сообщения
Вы не можете редактировать свои сообщения
Вы не можете удалять свои сообщения
Вы не можете голосовать в опросах
Вы не можете прикреплять файлы к сообщениям
Вы не можете скачивать файлы

Майнать ▼