Гоголь. Начало (Егор Баранов) [2017 г., Приключения, триллер, детектив, WEB-DL, 1080p]

Ответить на тему
 
Автор
Сообщение

Пост 12-Окт-2017 13:38

[Q] 

dimas1000

-Гоголь. Начало«Самая тёмная ночь перед рассветом»-- Год выпуска: 2017
Выпущено: Россия. Vice Films
Жанр: Приключения, триллер, детектив
Продолжительность: 01:46:42
Озвучивание: Оригинал [iTunes]
Субтитры: Отсутствуют
Режиссёр: Егор Баранов
В ролях: Александр Петров, Олег Меньшиков, Евгений Сытый, Таисия Вилкова, Артем Ткаченко, Юлия Франц, Евгений Стычкин, Ян Цапник, Сергей Бадюк, Марта Тимофеева-Описание: Казаки, ведьмы, русалки, утопленницы и другие обитатели Диканьки встречаются лицом к лицу со своим создателем Николаем Гоголем, молодым писарем из Петербурга, который страдает загадочными припадками и может общаться с персонажами из потустороннего мира. Вместе со своим начальником, блестящим столичным следователем Яковым Гуро, начинающий писатель приезжает на Полтавщину расследовать таинственные убийства девушек. Здесь же он встречает свою любовь, которой суждено сыграть роковую роль в его судьбе. Но хватит ли юному литератору духу противостоять невообразимому? Ведь по слухам, которые активно разносят напуганные местные жители, за преступлениями стоит не кто иной, как сам Дьявол в обличии черного всадника.- -Качество: WEB-DL 1080p
Формат: MKV
Видео кодек: AVC
Аудио кодек: AC3
Видео: AVC, 1920x806 (2.40:1), 24.000 fps, 4 442 Kbps (0.120 bit/pixel)
Аудио RUS: 48 kHz, AC3, 5.1, 384 Kbps | iTunes |
Версия самая полная [18+] - без цензуры!
Общее
Полное имя : D:\G0g0L.Ha4aL0.2O17.O.WEB-DL.1O8Op.mkv
Формат : Matroska
Версия формата : Version 4 / Version 2
Размер файла : 3,67 Гбайт
Продолжительность : 1 ч. 46 м.
Общий поток : 4924 Кбит/сек
Дата кодирования : UTC 2017-09-30 19:23:20
Программа кодирования : mkvmerge v8.3.0 ('Over the Horizon') 64bit
Библиотека кодирования : libebml v1.3.1 + libmatroska v1.4.2
Видео
Идентификатор : 1
Формат : AVC
Формат/Информация : Advanced Video Codec
Профиль формата : [email protected]
Параметр CABAC формата : Да
Параметр ReFrames формата : 5 кадров
Идентификатор кодека : V_MPEG4/ISO/AVC
Продолжительность : 1 ч. 46 м.
Битрейт : 4538 Кбит/сек
Ширина : 1920 пикселей
Высота : 806 пикселей
Соотношение сторон : 2,40:1
Режим частоты кадров : Постоянный
Частота кадров : 24,000 кадра/сек
Цветовое пространство : YUV
Субдискретизация насыщенности : 4:2:0
Битовая глубина : 8 бит
Тип развёртки : Прогрессивная
Бит/(Пиксели*Кадры) : 0.122
Размер потока : 3,38 Гбайт (92%)
Язык : Russian
Default : Да
Forced : Нет
Цветовой диапазон : Limited
Основные цвета : BT.709
Характеристики трансфера : BT.709
Коэффициенты матрицы : BT.709
Аудио
Идентификатор : 2
Формат : AC-3
Формат/Информация : Audio Coding 3
Расширение режима : CM (complete main)
Параметр Endianness формата : Big
Идентификатор кодека : A_AC3
Продолжительность : 1 ч. 46 м.
Вид битрейта : Постоянный
Битрейт : 384 Кбит/сек
Каналы : 6 каналов
Расположение каналов : Front: L C R, Side: L R, LFE
Частота : 48,0 КГц
Частота кадров : 31,250 кадров/сек (1536 spf)
Метод сжатия : С потерями
Размер потока : 293 Мбайт (8%)
Заголовок : iTunes
Язык : Russian
Default : Да
Forced : Нет
Меню
00:00:00.000 : en:1
00:05:51.958 : en:2
00:10:17.083 : en:3
00:15:44.041 : en:4
00:22:17.791 : en:5
00:27:06.791 : en:6
00:33:22.416 : en:7
00:40:16.791 : en:8
00:46:53.207 : en:9
00:54:39.290 : en:10
01:00:58.581 : en:11
01:07:46.164 : en:12
01:13:40.289 : en:13
01:20:47.830 : en:14
01:26:59.955 : en:15
01:32:11.121 : en:16
01:38:34.496 : en:17
--
Download / Скачать

Хотите скачать бесплатно? Зарегистрируйтесь на сайте (ссылка на регистрацию). Pirat.ca - самый быстрый торрент трекер в рунете!

Как скачивать  ·   Что такое торрент  ·   Рейтинг и ограничения

Hippopotam

Флибустьер

Пост 13-Окт-2017 00:56 (спустя 11 часов)

[Q] 

В принципе неплохое жанровое кино получилось, вот только затянуто слишком. Да еще актер Петров в главной роли - это что-то с чем-то... Спасибо!!! На любителя
[Профиль]  [ЛС] 

dimas1000 ®

1007

Пост 13-Окт-2017 01:01 (спустя 5 минут)

[Q] 

не плохое кино
[Профиль]  [ЛС] 

DGalei

Корсар

Пост 15-Окт-2017 10:13 (спустя 2 дня 9 часов)

[Q] 

Спасибо! Всем качать!!!
[Профиль]  [ЛС] 

xgoliy

Морской Волк

Пост 15-Окт-2017 15:30 (спустя 5 часов)

[Q] 

Спасибо, псмотрим Лови бочку
[Профиль]  [ЛС] 

Sector_X

311

Пост 20-Окт-2017 10:02 (спустя 4 дня)

[Q] 

Спасибо!!! !COOL!

_________________

[Профиль]  [ЛС] 

питон

Лоцман

Пост 22-Окт-2017 22:59 (спустя 2 дня 12 часов)

[Q] 

Напаминает Шерлока Хомса 2009 года, саундтреки, Лондон = Питер, ну и так же двое расследуют, Гениальный Шерлок=Меньшиков и его напарник....только уж больно жутко - детектив-ужастик.
Спасибо!!!
[Профиль]  [ЛС] 

xgoliy

Морской Волк

Пост 04-Ноя-2017 12:33 (спустя 12 дней)

[Q] 

Хороший фильм, ждем продолжения Автору респект!!! Лови бочку
[Профиль]  [ЛС] 

SwordFish

Корсар

1655

Пост 27-Май-2018 12:39 (спустя 6 месяцев 23 дня)

[Q] 

Интересная работа. Фильм понравился.
[Профиль]  [ЛС] 
Показать сообщения:    
Ответить на тему

Текущее время: Сегодня 02:11

Часовой пояс: GMT + 4



Вы не можете начинать темы
Вы не можете отвечать на сообщения
Вы не можете редактировать свои сообщения
Вы не можете удалять свои сообщения
Вы не можете голосовать в опросах
Вы не можете прикреплять файлы к сообщениям
Вы не можете скачивать файлы

Майнать ▼