Бегущий в лабиринте: Лекарство от смерти / Maze Runner: The Death Cure (Уэс Болл/Wes Ball) [2018 г., Фантастика, Боевик, Триллер, BDRip, 1080p] Dub (iTunes) + Sub (Rus)

Ответить на тему
 
Автор
Сообщение

Пост 21-Апр-2018 13:49

[Q] 

AlexDjas

Флибустьер

--Бегущий в лабиринте: Лекарство от смерти / Maze Runner: The Death Cure--«Из каждого лабиринта всегда есть выход»-- Производство: США, 20th Century Fox Film Corporation
Год выпуска: 2018 г.
Жанр: Фантастика, Боевик, Триллер
Продолжительность: 02:23:52
Мировая премьера: 17 января 2018
Российская премьера: 25 января 2018, «Двадцатый Век Фокс СНГ»
Перевод: Профессиональный (полное дублирование) [iTunes]
Режиссёр: Уэс Болл/Wes Ball--В ролях: Дилан О`Брайэн, Ки Хонг Ли, Кая Скоделарио, Уилл Поултер, Томас Броди Сэнгстер, Патришия Кларксон, Амл Амин, Крис Шеффилд, Карл Грин--Описание: Томас возглавляет отряд выживших глейдеров, чтобы выполнить последнюю и самую опасную миссию. Ради спасения своих друзей они должны проникнуть в легендарный Последний город, смертоносный лабиринт, контролируемый ПОРОКом. Каждый, кто выживет там, наконец-то получит ответы на все вопросы, которые мучили глейдеров с момента попадания в лабиринт.--
Качество видео: BDRip
Контейнер: MKV
Стандарт разрешения: 1080p
Видео кодек: MPEG4 AVC
Аудио кодек: AC3
Видео: AVC/H.264, 1920x802, ~7707 Kbps, 23,976 fps
Аудио: 48 kHz, AC3, 6 ch, 384 kbps
Cубтитры: русские
Общее
Уникальный идентификатор : 227639650688170605665682625929066355289 (0xAB41CD4E7F3E35A0B71489604D5C9A59)
Полное имя : G:\Фильмы\Maze_Runner_The.Death_Cure_2018_BDRip_1080p[pirat.ca].mkv
Формат : Matroska
Версия формата : Version 2
Размер файла : 8,13 Гбайт
Продолжительность : 2 ч. 23 м.
Общий поток : 8092 Кбит/сек
Название фильма : Maze_Runner_The_Death_Cure_2018_BDRip_1080p
Дата кодирования : UTC 2018-04-21 07:23:34
Программа кодирования : mkvmerge v5.8.0 ('No Sleep / Pillow') built on Sep 2 2012 15:37:04
Библиотека кодирования : libebml v1.2.3 + libmatroska v1.3.0
Видео
Идентификатор : 1
Формат : AVC
Формат/Информация : Advanced Video Codec
Профиль формата : [email protected]
Настройки формата : CABAC / 5 Ref Frames
Параметр CABAC формата : Да
Параметр RefFrames формата : 5 кадров
Идентификатор кодека : V_MPEG4/ISO/AVC
Продолжительность : 2 ч. 23 м.
Битрейт : 7707 Кбит/сек
Ширина : 1920 пикселей
Высота : 802 пикселя
Соотношение сторон : 2,40:1
Режим частоты кадров : Постоянный
Частота кадров : 23,976 (24000/1001) кадра/сек
Цветовое пространство : YUV
Субдискретизация насыщенности : 4:2:0
Битовая глубина : 8 бит
Тип развёртки : Прогрессивная
Бит/(Пиксели*Кадры) : 0.209
Размер потока : 7,58 Гбайт (93%)
Заголовок : Maze_Runner_The_Death_Cure_2018_BDRip_1080p
Библиотека кодирования : x264 core 152 r2851 ba24899
Настройки программы : cabac=1 / ref=5 / deblock=1:-3:-3 / analyse=0x3:0x113 / me=umh / subme=11 / psy=1 / psy_rd=1.00:0.00 / mixed_ref=1 / me_range=32 / chroma_me=1 / trellis=2 / 8x8dct=1 / cqm=0 / deadzone=21,11 / fast_pskip=0 / chroma_qp_offset=-2 / threads=12 / lookahead_threads=2 / sliced_threads=0 / nr=0 / decimate=0 / interlaced=0 / bluray_compat=0 / constrained_intra=0 / bframes=8 / b_pyramid=2 / b_adapt=2 / b_bias=0 / direct=3 / weightb=1 / open_gop=0 / weightp=2 / keyint=250 / keyint_min=23 / scenecut=40 / intra_refresh=0 / rc_lookahead=40 / rc=2pass / mbtree=0 / bitrate=7707 / ratetol=1.0 / qcomp=0.80 / qpmin=0 / qpmax=69 / qpstep=4 / cplxblur=20.0 / qblur=0.5 / vbv_maxrate=50000 / vbv_bufsize=62500 / nal_hrd=none / filler=0 / ip_ratio=1.40 / pb_ratio=1.30 / aq=3:0.80
Язык : English
Default : Да
Forced : Нет
Аудио
Идентификатор : 2
Формат : AC-3
Формат/Информация : Audio Coding 3
Идентификатор кодека : A_AC3
Продолжительность : 2 ч. 23 м.
Вид битрейта : Постоянный
Битрейт : 384 Кбит/сек
Каналы : 6 каналов
Расположение каналов : Front: L C R, Side: L R, LFE
Частота : 48,0 КГц
Частота кадров : 31,250 кадров/сек (1536 SPF)
Битовая глубина : 16 бит
Метод сжатия : С потерями
Размер потока : 395 Мбайт (5%)
Заголовок : iTunes
Язык : Russian
ServiceKind/String : Complete Main
Default : Да
Forced : Нет
Текст
Идентификатор : 3
Формат : UTF-8
Идентификатор кодека : S_TEXT/UTF8
Идентификатор кодека/Информация : UTF-8 Plain Text
Язык : Russian
Default : Нет
Forced : Нет
Меню
00:00:00.000 : en:00:00:00.000
00:11:31.608 : en:00:11:31.608
00:15:59.750 : en:00:15:59.750
00:20:08.457 : en:00:20:08.457
00:24:34.890 : en:00:24:34.890
00:30:40.547 : en:00:30:40.547
00:36:47.330 : en:00:36:47.330
00:43:15.343 : en:00:43:15.343
00:48:06.342 : en:00:48:06.342
00:55:17.397 : en:00:55:17.397
01:02:42.926 : en:01:02:42.926
01:07:14.489 : en:01:07:14.489
01:11:56.062 : en:01:11:56.062
01:15:48.210 : en:01:15:48.210
01:23:20.329 : en:01:23:20.329
01:29:45.422 : en:01:29:45.422
01:34:00.593 : en:01:34:00.593
01:40:09.795 : en:01:40:09.795
01:43:33.082 : en:01:43:33.082
01:53:38.645 : en:01:53:38.645
01:59:43.885 : en:01:59:43.885
02:04:49.399 : en:02:04:49.399
02:10:03.087 : en:02:10:03.087
02:18:03.859 : en:02:18:03.859
Download / Скачать

Хотите скачать бесплатно? Зарегистрируйтесь на сайте (ссылка на регистрацию). Pirat.ca - самый быстрый торрент трекер в рунете!

Как скачивать  ·   Что такое торрент  ·   Рейтинг и ограничения

Кристина119

Гроза морей

Пост 22-Апр-2018 00:48 (спустя 10 часов)

[Q] 

Спасибо за качество Лови бочку
[Профиль]  [ЛС] 

tumparov

Корсар

Пост 23-Апр-2018 12:54 (спустя 1 день 12 часов)

[Q] 

ну по моему мнению, третья часть оказалась интереснее предыдущих, если не придираться к некоторым штампам, то смотрится без желания перемотать. Спасибо!!! Лови бочку
[Профиль]  [ЛС] 

Skycom

Лоцман

Пост 23-Апр-2018 19:51 (спустя 6 часов)

[Q] 

Отличчное качество!! Благодарствую Супер!
[Профиль]  [ЛС] 

bnm

Морской Волк

Пост 27-Апр-2018 23:23 (спустя 4 дня)

[Q] 

Спасибо!!! Лови бочку
[Профиль]  [ЛС] 

Sector_X

311

Пост 28-Апр-2018 01:23 (спустя 2 часа)

[Q] 

Супер! Автору респект!!!

_________________

[Профиль]  [ЛС] 

_8165

Корсар

Пост 28-Апр-2018 19:57 (спустя 18 часов)

[Q] 

Качество норм! Супер! Спасибо!!!
[Профиль]  [ЛС] 

koljan-2008

Флибустьер

5

Пост 04-Май-2018 20:15 (спустя 6 дней)

[Q] 

Желания смотреть что то не возникало, но прочитал коменты - заинтересовало. Качаю в свою библиотеку, потом посмотрю. Раздающему спасибо за труды!

_________________
Нужно лишь верить в мечту. Искренне верить! И тогда всё получится!
[Профиль]  [ЛС] 

sunsunych5

Шкипер

Пост 09-Май-2018 20:09 (спустя 4 дня)

[Q] 

Спасибо!
Посмотрим.
[Профиль]  [ЛС] 

Zha-pol

Легенда

Пост 19-Май-2018 14:29 (спустя 9 дней)

[Q] 

Спасибо!!! Одобрямс!

_________________
[Профиль]  [ЛС] 

windj

Корсар

73

Пост 31-Май-2018 22:25 (спустя 12 дней)

[Q] 

В целом смотреть можно. Не понял, будет ли продолжение или это конец эпопеи?

_________________
[Профиль]  [ЛС] 
Показать сообщения:    
Ответить на тему

Текущее время: Сегодня 22:20

Часовой пояс: GMT + 4



Вы не можете начинать темы
Вы не можете отвечать на сообщения
Вы не можете редактировать свои сообщения
Вы не можете удалять свои сообщения
Вы не можете голосовать в опросах
Вы не можете прикреплять файлы к сообщениям
Вы не можете скачивать файлы

Майнать ▼