Лёд (Олег Трофим) [2018 г., Мелодрама, Драма, Спорт, WEB-DL, 1080p]

Ответить на тему
 
Автор
Сообщение

Пост 28-Мар-2018 12:33

[Q] 

AlexDjas

Гроза морей

--Лёд-- Производство: Россия, Телеканал «РОССИЯ 1», Кинокомпания «Водород», Art Pictures Studio
Режиссёр: Олег Трофим
Жанр: Мелодрама, Драма, Спорт
Год выпуска: 2018 г.
Продолжительность: 01:57:51
Российская премьера: 14 февраля 2018, «WDSSPR»
В ролях: Аглая Тарасова, Диана Енакаева, Мария Аронова, Александр Петров, Милош Бикович, Ян Цапник, Ксения Раппопорт, Ксения Лаврова-Глинка, Павел Майков--Описание: С самого детства Надя верила в чудеса. Она представляла себе, как выходит на лёд под овации публики и танцует свой самый красивый танец. И вот, благодаря вере и упорству, Надя становится знаменитой фигуристкой. Но когда ее мечты о громких победах, красивой жизни и прекрасном принце уже, кажется, готовы исполниться, судьба преподносит ей настоящее испытание. И чтобы его пройти, нужно будет снова, как в детстве, поверить в мечту. Ведь, может быть, победа не всегда должна быть громкой, а прекрасный принц не обязательно передвигается на белом коне?..--
Качество видео: WEB-DL
Контейнер: MKV
Стандарт разрешения: 1080p
Видео кодек: MPEG4 AVC
Аудио кодек: AC3
Видео: AVC/H.264, 1920x800 (2.40:1), 4534 kbps, 23.976 fps
Аудио: 48 kHz, AC3 Dolby Digital, 3/2 (L,C,R,l,r) + LFE ch, ~384 kbps
Cубтитры: отсутствуют
Общее
Уникальный идентификатор : 239244446266043670349070319261734486234 (0xB3FCCDE7355FEAFBA824208D6DA140DA)
Полное имя : G:\Фильмы\Лёд.2018.WEB-DL.1080p.[pirat.ca].mkv
Формат : Matroska
Версия формата : Version 2
Размер файла : 4,05 Гбайт
Продолжительность : 1 ч. 57 м.
Общий поток : 4920 Кбит/сек
Дата кодирования : UTC 2018-03-27 18:09:00
Программа кодирования : mkvmerge v8.3.0 ('Over the Horizon') 64bit
Библиотека кодирования : libebml v1.3.1 + libmatroska v1.4.2
Видео
Идентификатор : 1
Формат : AVC
Формат/Информация : Advanced Video Codec
Профиль формата : [email protected]
Настройки формата : CABAC / 5 Ref Frames
Параметр CABAC формата : Да
Параметр RefFrames формата : 5 кадров
Идентификатор кодека : V_MPEG4/ISO/AVC
Продолжительность : 1 ч. 57 м.
Битрейт : 4534 Кбит/сек
Ширина : 1920 пикселей
Высота : 800 пикселей
Соотношение сторон : 2,40:1
Режим частоты кадров : Постоянный
Частота кадров : 23,976 (23976/1000) кадра/сек
Цветовое пространство : YUV
Субдискретизация насыщенности : 4:2:0
Битовая глубина : 8 бит
Тип развёртки : Прогрессивная
Бит/(Пиксели*Кадры) : 0.123
Размер потока : 3,73 Гбайт (92%)
Язык : English
Default : Да
Forced : Нет
Цветовой диапазон : Limited
Основные цвета : BT.709
Характеристики трансфера : BT.709
Коэффициенты матрицы : BT.709
Аудио
Идентификатор : 2
Формат : AC-3
Формат/Информация : Audio Coding 3
Идентификатор кодека : A_AC3
Продолжительность : 1 ч. 57 м.
Вид битрейта : Постоянный
Битрейт : 384 Кбит/сек
Каналы : 6 каналов
Расположение каналов : Front: L C R, Side: L R, LFE
Частота : 48,0 КГц
Частота кадров : 31,250 кадров/сек (1536 SPF)
Битовая глубина : 16 бит
Метод сжатия : С потерями
Размер потока : 324 Мбайт (8%)
Язык : Russian
ServiceKind/String : Complete Main
Default : Да
Forced : Нет
Download / Скачать

Хотите скачать бесплатно? Зарегистрируйтесь на сайте (ссылка на регистрацию). Pirat.ca - самый быстрый торрент трекер в рунете!

Как скачивать  ·   Что такое торрент  ·   Рейтинг и ограничения

grosboy

Гроза морей

Пост 03-Апр-2018 08:05 (спустя 5 дней)

[Q] 

Народ АУ!!! Как фильм посмотревшие, отпишитесь...

_________________
Щастье есть - его не может не быть...
[Профиль]  [ЛС] 

xgoliy

Морской Волк

Пост 09-Апр-2018 08:44 (спустя 6 дней)

[Q] 

Не вдохнавил На любителя
[Профиль]  [ЛС] 

Hippopotam

Флибустьер

Пост 09-Апр-2018 14:19 (спустя 5 часов)

[Q] 

Красочная, духоподъемная сказка. Мария Аронова великолепна Спасибо!!! На любителя
[Профиль]  [ЛС] 

grosboy

Гроза морей

Пост 15-Апр-2018 09:36 (спустя 5 дней)

[Q] 

Посмотрели! Очень интересный фильм, понравился. Хорошее сочетание актёров. Режиссёр хорош, можно здорово местами посмеяться и поплакать, короче фильм класс всем рекомендую...

_________________
Щастье есть - его не может не быть...
[Профиль]  [ЛС] 

SwordFish

Корсар

1669

Пост 05-Июн-2018 01:42 (спустя 1 месяц 19 дней)

[Q] 

Хороший добрый фильм. Игра актеров хоть иногда и слишком наиграна, но в целом не портит картину. Забавные музыкальные вставки.
Ну а так типичная история любовного треугольника: он успешный расчетливый мудак -> она красивая провинциалка <- второй он неотесанный придурок, но искренний.
Добро победило зло.
[Профиль]  [ЛС] 
Показать сообщения:    
Ответить на тему

Текущее время: Сегодня 07:09

Часовой пояс: GMT + 4



Вы не можете начинать темы
Вы не можете отвечать на сообщения
Вы не можете редактировать свои сообщения
Вы не можете удалять свои сообщения
Вы не можете голосовать в опросах
Вы не можете прикреплять файлы к сообщениям
Вы не можете скачивать файлы

Майнать ▼