Тролли / Trolls (Уолт Дорн, Майк Митчелл / Walt Dohrn, Mike Mitchell) [2016 г., мультфильм, мюзикл, фэнтези, комедия, приключения, семейный, WEB-DLRip] Dub [iTunes]

Ответить на тему
 
Автор
Сообщение

Пост 23-Дек-2016 09:10

[Q] 

aleksey99

--Тролли / Trolls--«Найди своё счастье»-- Производство: США, DreamWorks Animation
Год выпуска: 2016 г.
Жанр: мультфильм, мюзикл, фэнтези, комедия, приключения, семейный
Продолжительность: 01:32:48--Мировая премьера: 8 октября 2016
Российская премьера: 27 октября 2016, «Двадцатый Век Фокс СНГ»--Перевод: Профессиональный (полное дублирование) [iTunes]--Режиссер: Уолт Дорн, Майк Митчелл / Walt Dohrn, Mike Mitchell--В ролях: Анна Кендрик, Зои Дешанель, Джастин Тимберлэйк, Кристин Барански, Джеффри Тэмбор, Кристофер Минц-Плассе, Джеймс Корден, Кунал Найяр, Гвен Стефани, Расселл Брэнд--Описание: Отправляясь в увлекательное приключение, которое заведет ее далеко от привычного ей мира, Розочка объединяет усилия с самым мрачным троллем на свете по имени Цветан для достижения успеха в своей смелой миссии спасти ее друзей из тисков зловещих бергенов и их лидера, короля Хрящ Старший. Невероятные приключения Розочки проверят ее силу, покажут ее истинную суть и бросят вызов ее способности ударяться в пение в любой момент.-- --Качество видео: WEB-DLRip
Контейнер: AVI
Видео кодек: XviD
Аудио кодек: AC3
Видео: 720x304 (2.37:1), 23.976 fps, XviD build 50 ~1714 kbps avg, 0.33 bit/pixel
Аудио: 48 kHz, AC3 Dolby Digital, 3/2 (L,C,R,l,r) + LFE ch, ~384 kbps
Cубтитры: отсутствуют.
Общее
Полное имя : H:\Torrent2\Tr0LLi.2O16.D.WEB-DLRip.14OOMB.avi
Формат : AVI
Формат/Информация : Audio Video Interleave
Размер файла : 1,37 Гбайт
Продолжительность : 1 ч. 32 м.
Общий поток : 2107 Кбит/сек
Программа кодирования : VirtualDubMod 1.5.10.2 (build 2540/release)
Библиотека кодирования : VirtualDubMod build 2540/release
Видео
Идентификатор : 0
Формат : MPEG-4 Visual
Профиль формата : Advanced Simple@L5
Параметр BVOP формата : 2
Параметр QPel формата : Нет
Параметр GMC формата : Без точки перехода
Параметр матрицы формата : Default (MPEG)
Идентификатор кодека : XVID
Идентификатор кодека/Подсказка : XviD
Продолжительность : 1 ч. 32 м.
Битрейт : 1715 Кбит/сек
Ширина : 720 пикселей
Высота : 304 пикселя
Соотношение сторон : 2,35:1
Частота кадров : 23,976 (24000/1001) кадра/сек
Цветовое пространство : YUV
Субдискретизация насыщенности : 4:2:0
Битовая глубина : 8 бит
Тип развёртки : Прогрессивная
Метод сжатия : С потерями
Бит/(Пиксели*Кадры) : 0.327
Размер потока : 1,11 Гбайт (81%)
Библиотека кодирования : XviD 1.2.1 (UTC 2008-12-04)
Аудио
Идентификатор : 1
Формат : AC-3
Формат/Информация : Audio Coding 3
Расширение режима : CM (complete main)
Параметр Endianness формата : Big
Идентификатор кодека : 2000
Продолжительность : 1 ч. 32 м.
Вид битрейта : Постоянный
Битрейт : 384 Кбит/сек
Каналы : 6 каналов
Расположение каналов : Front: L C R, Side: L R, LFE
Частота : 48,0 КГц
Частота кадров : 31,250 кадров/сек (1536 spf)
Метод сжатия : С потерями
Размер потока : 254 Мбайт (18%)
Выравнивание : Разделение по промежуткам
Продолжительность промежутка : 42 мс. (1,00 видеокадр)
Время предзагрузки промежутка : 500 мс.
Трейлер
Download / Скачать

Хотите скачать бесплатно? Зарегистрируйтесь на сайте (ссылка на регистрацию). Pirat.ca - самый быстрый торрент трекер в рунете!

Как скачивать  ·   Что такое торрент  ·   Рейтинг и ограничения

clark

Флибустьер

Пост 23-Дек-2016 11:01 (спустя 1 час 50 минут)

[Q] 

спасибо! самый раз на праздники!!! Лови бочку

_________________
Последним смеётся тот, кто стреляет первым.
[Профиль]  [ЛС] 

aleks77l

Корсар

Пост 23-Дек-2016 19:10 (спустя 8 часов)

[Q] 

Лови бочку! bi
[Профиль]  [ЛС] 

Doctor-ZLO

Гроза морей

504

Пост 23-Дек-2016 22:30 (спустя 3 часа)

[Q] 

Спасибо,поглядим на выходных. Автору респект!!!

_________________
[Профиль]  [ЛС] 

aka_johnny

Флибустьер

Пост 23-Дек-2016 22:40 (спустя 10 минут)

[Q] 

+6 это хоршо)))
[Профиль]  [ЛС] 

Mosgas666

Шкипер

Пост 24-Дек-2016 23:06 (спустя 1 день)

[Q] 

Благодарю, ребенок будет рад.
[Профиль]  [ЛС] 

pan_tera

Корсар

Пост 03-Янв-2017 23:45 (спустя 10 дней)

[Q] 

Добрый, милый мультфильм. Шикарный аудио ряд с переведенными и адаптированными песнями. Одобрямс!
[Профиль]  [ЛС] 

xxx4ervxxx

Морской Волк

Пост 04-Янв-2017 20:16 (спустя 20 часов)

[Q] 

Спасибо!!! Лови бочку
[Профиль]  [ЛС] 

lexaspirit

Пост 12-Янв-2017 17:34 (спустя 7 дней)

[Q] 

Мульт супер. Смотреть рекомендую

_________________
-------------------- ----------------------
[Профиль]  [ЛС] 

f1e1s1

Штурман

Пост 14-Янв-2017 21:21 (спустя 2 дня 3 часа)

[Q] 

смотрел в кино, понравился
[Профиль]  [ЛС] 

buzuvir

Корсар

Пост 16-Янв-2017 12:02 (спустя 1 день 14 часов)

[Q] 

Смотрел не здесь - прикольный. Качать bj

_________________
[Профиль]  [ЛС] 

UnKnown79

Морской Волк

Пост 21-Янв-2017 11:02 (спустя 4 дня)

[Q] 

посмотрим Спасибо!!! Автору респект!!!
[Профиль]  [ЛС] 

Пост 25-Янв-2017 11:17 (спустя 4 дня)

Топик был перенесен из форума Новинки (HD|DVD|BD| TV|SAT|PDTV| - Rips) в форум Зарубежные полнометражные мультфильмы
aleksey99
 

longibob

Штурман

Пост 26-Янв-2017 18:17 (спустя 5 дней)

[Q] 

спасибо Лови бочку
[Профиль]  [ЛС] 

Ливень

Корсар

Пост 22-Сен-2017 21:16 (спустя 7 месяцев 27 дней)

[Q] 

Блин, такой слащавый, что даже ребенок отказался смотреть На любителя
[Профиль]  [ЛС] 

gosha766

Шкипер

Пост 05-Июн-2018 14:59 (спустя 8 месяцев 12 дней)

[Q] 

Спасибо.
Дети в восторге.
[Профиль]  [ЛС] 
Показать сообщения:    
Ответить на тему

Текущее время: Сегодня 21:18

Часовой пояс: GMT + 4



Вы не можете начинать темы
Вы не можете отвечать на сообщения
Вы не можете редактировать свои сообщения
Вы не можете удалять свои сообщения
Вы не можете голосовать в опросах
Вы не можете прикреплять файлы к сообщениям
Вы не можете скачивать файлы

Майнать ▼