Как Витька Чеснок вез Леху Штыря в дом инвалидов (Александр Хант) [2017 г., драма, криминал, BDRip] Original (RUS)[Лицензия]

Ответить на тему
 
Автор
Сообщение

Пост 14-Янв-2018 21:16

[Q] 

aleksey99

--Как Витька Чеснок вез Леху Штыря в дом инвалидов--«Стань тем, что ты есть»-- Производство: Россия, ВГИК-Дебют
Год выпуска: 2017 г.
Жанр: драма, криминал
Продолжительность: 01:29:47--Мировая премьера: 6 июля 2017
Премьера (РФ): 12 октября 2017, «Каро», «Стелла-Релиз», «Кинологистика»
Релиз на DVD: 15 января 2018, «НД Плэй»
Релиз на Blu-Ray: 15 января 2018, «НД Плэй»--Режиссер: Александр Хант--В ролях: Алексей Серебряков, Евгений Ткачук, Ольга Лапшина, Алина Насибуллина, Георгий Кудренко, Роман Шаляпин, Александра Велескевич, Ксения Орлова, Наталия Вдовина, Дмитрий Архангельский--Описание: Картина расскажет о 27-летнем Витьке Чесноке, парне с детдомовским прошлым, который мечтает сбежать от «мешающих» ему жить жены и сына. Недолюбленный в детстве и очерствевший сердцем Витька Чеснок встречает своего отца-уголовника, а теперь еще и калеку. Витька решает отвезти отца в дом инвалидов, не подозревая, какие приключения и опасности ждут их по дороге.-- --Качество видео: BDRip
Контейнер: AVI
Видео кодек: XviD
Аудио кодек: AC3
Видео: 704x400 (1.76:1), 24 fps, XviD build 73 ~1871 kbps avg, 0.28 bit/pixel
Аудио: 48 kHz, AC3 Dolby Digital, 3/2 (L,C,R,l,r) + LFE ch, ~448 kbps
Cубтитры: отсутствуют
Общее
Полное имя : H:\Torrent2\Kak.Vitya.Vez.Lehu.Htyrya.2017.BDRip.1.46Gb.avi
Формат : AVI
Формат/Информация : Audio Video Interleave
Размер файла : 1,46 Гбайт
Продолжительность : 1 ч. 29 м.
Общий поток : 2329 Кбит/сек
Программа кодирования : VirtualDubMod 1.5.10.2 (build 2540/release)
Библиотека кодирования : VirtualDubMod build 2540/release
Видео
Идентификатор : 0
Формат : MPEG-4 Visual
Профиль формата : Advanced Simple@L5
Настройки формата : BVOP1 / Custom Matrix
Параметр BVOP формата : 1
Параметр QPel формата : Нет
Параметр GMC формата : Без точки перехода
Параметр матрицы формата : Выборочная
Идентификатор кодека : XVID
Идентификатор кодека/Подсказка : XviD
Продолжительность : 1 ч. 29 м.
Битрейт : 1872 Кбит/сек
Ширина : 704 пикселя
Высота : 400 пикселей
Соотношение сторон : 16:9
Частота кадров : 24,000 кадра/сек
Цветовое пространство : YUV
Субдискретизация насыщенности : 4:2:0
Битовая глубина : 8 бит
Тип развёртки : Прогрессивная
Метод сжатия : С потерями
Бит/(Пиксели*Кадры) : 0.277
Размер потока : 1,17 Гбайт (80%)
Библиотека кодирования : XviD 73
Аудио
Идентификатор : 1
Формат : AC-3
Формат/Информация : Audio Coding 3
Идентификатор кодека : 2000
Продолжительность : 1 ч. 29 м.
Вид битрейта : Постоянный
Битрейт : 448 Кбит/сек
Каналы : 6 каналов
Расположение каналов : Front: L C R, Side: L R, LFE
Частота : 48,0 КГц
Частота кадров : 31,250 кадров/сек (1536 SPF)
Битовая глубина : 16 бит
Метод сжатия : С потерями
Размер потока : 288 Мбайт (19%)
Выравнивание : Разделение по промежуткам
Продолжительность промежутка : 42 мс. (1,00 видеокадр)
Время предзагрузки промежутка : 500 мс.
ServiceKind/String : Complete Main
Трейлер
Download / Скачать

Хотите скачать бесплатно? Зарегистрируйтесь на сайте (ссылка на регистрацию). Pirat.ca - самый быстрый торрент трекер в рунете!

Как скачивать  ·   Что такое торрент  ·   Рейтинг и ограничения

Полтос

Гроза морей

Пост 14-Янв-2018 23:18 (спустя 2 часа 2 минуты)

[Q] 

Неплохой фильм из разряда жизненных русской глубинки о том, что даже в таком мерзком субъекте, как Чеснок может скрываться что-то человеческое. Благодаря автору к концу фильма удаётся проникнуться уважением к столь сомнительным, но живым и неплохо сыгранным персонажам. Кино не для детского просмотра.
Мне понравилось Автору респект!!!

_________________
Первый закон Прапорщика: Всё что поднимаемо - относительно!)
[Профиль]  [ЛС] 

Kmscom

Шкипер

Пост 15-Янв-2018 18:19 (спустя 19 часов)

[Q] 

не фильм, а какой то сгусток блевотины.
И попытки искать в ней проблески .....похоже на мазохизм. Там то же есть проблески..
[Профиль]  [ЛС] 

rsel

Морской Волк

Пост 22-Янв-2018 17:10 (спустя 6 дней)

[Q] 

Классный фильм, мне понравился. Жизненно )
[Профиль]  [ЛС] 

Окакий

Лоцман

Пост 26-Янв-2018 22:59 (спустя 4 дня)

[Q] 

Хороший фильм, стоит посмотреть.
[Профиль]  [ЛС] 

sashafandey

Морской Волк

Пост 27-Янв-2018 18:29 (спустя 19 часов)

[Q] 

балдежное кино
[Профиль]  [ЛС] 

Ruslan2800

Штурман

Пост 30-Янв-2018 00:46 (спустя 2 дня 6 часов)

[Q] 

Неожиданно хороший фильм. Бывает кино с веселым фасадом, за которым унылое содержание. Здесь же наоборот - за унылым фасадом весьма нескучный и даже позитивный сюжет, хорошая игра актеров. Многие фильмы последнего времени, заявленные как комедии, с трудом досматриваю до середины, этот посмотрел на одном дыхании.
816869не фильм, а какой то сгусток блевотины.
И попытки искать в ней проблески .....похоже на мазохизм. Там то же есть проблески..
Если в фильме есть что-то светлое, никаких попыток искать его не требуется, просто чувствуешь это, и все...
[Профиль]  [ЛС] 

aka_johnny

Флибустьер

Пост 05-Июн-2018 17:26 (спустя 4 месяца 6 дней)

[Q] 

Хорошее название фильма, предрасполагает к просмотру)
[Профиль]  [ЛС] 

lexaspirit

Пост 06-Июн-2018 21:31 (спустя 1 день 4 часа)

[Q] 

Неожиданно хороший фильм получился. Посмотрел с удовольствием

_________________
-------------------- ----------------------
[Профиль]  [ЛС] 
Показать сообщения:    
Ответить на тему

Текущее время: Сегодня 02:16

Часовой пояс: GMT + 4



Вы не можете начинать темы
Вы не можете отвечать на сообщения
Вы не можете редактировать свои сообщения
Вы не можете удалять свои сообщения
Вы не можете голосовать в опросах
Вы не можете прикреплять файлы к сообщениям
Вы не можете скачивать файлы

Майнать ▼