Спецназ / S.W.A.T. / Сезон: 1 / Серии: 22 из 22 (Билл Джирхарт / Billy Gierhart) [2017 г., Боевик, драма, приключения, триллер, WEB-DLRip, 720p] MVO (NewStudio) + Original (Eng) + Sub (Rus)

Ответить на тему
 
Автор
Сообщение

Пост 04-Май-2018 14:16

[Q] 

SwordFish

Корсар

-Спецназ / S.W.A.T.-- -Производство: США
Жанр: Боевик, драма, приключения, триллер
Год выпуска: 2017 г.
Продолжительность: ~00:43-Мировая премьера: 2 ноября 2017
Перевод: Профессиональный (многоголосый, закадровый) [NewStudio] !Есть аудио реклама во время вступительной заставки и титров!
Оригинальный аудиопоток: английский-Режиссёр: Билл Джирхарт / Billy Gierhart, Эгил Эгилссон / Eagle Egilsson, Джастин Лин / Justin Lin-В ролях: Кенни Джонсон, Стефани Сигман, Шемар Мур, Дэвид Лим, Патрик Ст. Эсприт, Аарон Бледсо, Лина Эско, Луис Ферриньо мл., Джей Хэррингтон, Джим Гэррити и др.-Описание: Отряд специального назначения полицейского управления Лос-Анджелеса славится своей дисциплиной и умением справиться с любой поставленной задачей. Каждый боец спецназа готов стоять за другого горой и доверяет товарищу в любой ситуации. Операция по обезвреживанию боевиков в одном из пригородов заканчивается трагедией — в перестрелке ранен чернокожий подросток, и хотя главу отряда спецназа отстраняют от работы, местные жители негодуют. Стихийными акциями протеста против произвола полиции пользуется таинственный снайпер, устраивающий на улицах настоящий хаос, в котором каждый подозревает каждого, а опасность может ожидать за любым углом. В условиях крайнего социального напряжения сержант Харрельсон берет на себя командование спецназом и организует защиту горожан.--
Качество видео: WEB-DLRip
Контейнер: MKV
Стандарт разрешения: 720p
Видео кодек: MPEG4 AVC
Аудио кодек: AC3
Видео: V_MPEG4/ISO/AVC, 1280х720 (16:9), ~4053 kb/s, 23.976 fps
Аудио #1: AC-3, 384 kb/s, 6 channels (Front: L C R, Side: L R, LFE), 48.0 kHz| Rus NewStudio
Аудио #2: AC-3, 384 kb/s, 6 channels (Front: L C R, Side: L R, LFE), 48.0 kHz| Eng
Cубтитры: русские
Формат субтитров: softsub (SSA/ASS)
Доп. информация о субтитрах: в субтитрах текстовая реклама
General
Unique ID : 200991645925264716439834850067965026790 (0x9735953BF185B78EB5D31FBEF1C021E6)
Complete name : D:\Films\S.W.A.T.s01e01.WEBDL.720p.NewStudio.TV.mkv
Format : Matroska
Format version : Version 4 / Version 2
File size : 1.51 GiB
Duration : 44 min 46 s
Overall bit rate : 4 823 kb/s
Encoded date : UTC 2017-11-09 02:21:07
Writing application : mkvmerge v8.2.0 ('World of Adventure') 32bit
Writing library : libebml v1.3.1 + libmatroska v1.4.2
Video
ID : 1
Format : AVC
Format/Info : Advanced Video Codec
Format profile : [email protected]
Format settings : 2 Ref Frames
Format settings, CABAC : No
Format settings, ReFrames : 2 frames
Codec ID : V_MPEG4/ISO/AVC
Duration : 44 min 46 s
Bit rate : 4 053 kb/s
Width : 1 280 pixels
Height : 720 pixels
Display aspect ratio : 16:9
Frame rate mode : Constant
Frame rate : 23.976 (23976/1000) FPS
Color space : YUV
Chroma subsampling : 4:2:0
Bit depth : 8 bits
Scan type : Progressive
Bits/(Pixel*Frame) : 0.183
Stream size : 1.27 GiB (84%)
Language : English
Default : Yes
Forced : No
Color range : Limited
Color primaries : BT.709
Transfer characteristics : BT.709
Matrix coefficients : BT.709
Audio #1
ID : 2
Format : AC-3
Format/Info : Audio Coding 3
Codec ID : A_AC3
Duration : 44 min 46 s
Bit rate mode : Constant
Bit rate : 384 kb/s
Channel(s) : 6 channels
Channel positions : Front: L C R, Side: L R, LFE
Sampling rate : 48.0 kHz
Frame rate : 31.250 FPS (1536 SPF)
Bit depth : 16 bits
Compression mode : Lossy
Stream size : 123 MiB (8%)
Title : NewStudio.TV
Language : Russian
Service kind : Complete Main
Default : Yes
Forced : No
Audio #2
ID : 3
Format : AC-3
Format/Info : Audio Coding 3
Codec ID : A_AC3
Duration : 44 min 46 s
Bit rate mode : Constant
Bit rate : 384 kb/s
Channel(s) : 6 channels
Channel positions : Front: L C R, Side: L R, LFE
Sampling rate : 48.0 kHz
Frame rate : 31.250 FPS (1536 SPF)
Bit depth : 16 bits
Compression mode : Lossy
Stream size : 123 MiB (8%)
Language : English
Service kind : Complete Main
Default : No
Forced : No
Text
ID : 4
Format : ASS
Codec ID : S_TEXT/ASS
Codec ID/Info : Advanced Sub Station Alpha
Duration : 37 min 12 s
Bit rate : 0 b/s
Count of elements : 2
Compression mode : Lossless
Stream size : 202 Bytes (0%)
Language : Russian
Default : Yes
Forced : Yes
22.05.2018 Добавлена 20 серия
23.05.2018 Добавлена 21 серия
27.05.2018 Добавлена 22 серия. Полный сезон.
Download / Скачать

Хотите скачать бесплатно? Зарегистрируйтесь на сайте (ссылка на регистрацию). Pirat.ca - самый быстрый торрент трекер в рунете!

Как скачивать  ·   Что такое торрент  ·   Рейтинг и ограничения

Victorsalata

Флибустьер

Пост 10-Июн-2018 17:23 (спустя 1 месяц 6 дней)

[Q] 

Нет на раздаче. Почему? Неплохой сериал.
[Профиль]  [ЛС] 
Показать сообщения:    
Ответить на тему

Текущее время: Сегодня 09:20

Часовой пояс: GMT + 4



Вы не можете начинать темы
Вы не можете отвечать на сообщения
Вы не можете редактировать свои сообщения
Вы не можете удалять свои сообщения
Вы не можете голосовать в опросах
Вы не можете прикреплять файлы к сообщениям
Вы не можете скачивать файлы

Майнать ▼