Tomb Raider: Лара Крофт / Tomb Raider (Роар Утхауг/Roar Uthaug) [2018 г., боевик, приключения, TeleSynch] Dub

Ответить на тему
 
Автор
Сообщение

Пост 05-Апр-2018 08:10

[Q] 

AlexDjas

Флибустьер

--Tomb Raider: Лара Крофт / Tomb Raider-- Производство: Великобритания, США
Год выпуска: 2018 г.
Жанр: боевик, приключения
Продолжительность: 01:53:00
Мировая премьера: 2 марта 2018
Российская премьера: 15 марта 2018, «Каро-Премьер»
Перевод: Профессиональный (полное дублирование)
Режиссёр: Роар Утхауг/Roar Uthaug--В ролях: Алисия Викандер, Доминик Уэст, Уолтон Гоггинс, Дэниэл Ву, Кристин Скотт Томас, Дерек Джекоби, Александр Виллауме, Тамер Барджаг, Эдриан Коллинз, Кинэн Эррисон--Описание: Лара Крофт — весьма самостоятельная дочь эксцентричного искателя приключений, который пропал, едва она стала подростком. Теперь ей двадцать один, она бесцельно проживает свою жизнь, курьером рассекая на байке по забитым улицам восточного Лондона, а ее заработка едва хватает на оплату квартиры и занятий в колледже. Решительно настроенная пробиться сама, она отказывается брать на себя руководство глобальной империей отца, столь же категорично отвергая мысль о том, что он действительно пропал. Слыша советы о том, что ей нужно смириться с этим фактом и жить дальше после семи лет бесплодных поисков, Лара уже и сама не понимает, что же заставляет ее распутывать обстоятельства его таинственной смерти.-- Качество видео: TeleSynch
Контейнер: AVI
Видео кодек: XviD
Аудио кодек: AC3
Видео: 720x304 (2.37:1), 23.976 fps, XviD build 50 ~1638 kbps avg, 0.31 bit/pixel
Аудио: 48 kHz, AC3 Dolby Digital, 2/0 (L,R) ch, ~192 kbps
Cубтитры: отсутствуют
Общее
Полное имя : D:\торрент\LaraKroft.2018.D.TS.[pirat.ca].avi
Формат : AVI
Формат/Информация : Audio Video Interleave
Размер файла : 1,46 Гбайт
Продолжительность : 1 ч. 53 м.
Общий поток : 1840 Кбит/сек
Программа кодирования : VirtualDubMod 1.5.10.2 (build 2540/release)
Библиотека кодирования : VirtualDubMod build 2540/release
Видео
Идентификатор : 0
Формат : MPEG-4 Visual
Профиль формата : Advanced Simple@L5
Настройки формата : BVOP2
Параметр BVOP формата : 2
Параметр QPel формата : Нет
Параметр GMC формата : Без точки перехода
Параметр матрицы формата : Default (MPEG)
Идентификатор кодека : XVID
Идентификатор кодека/Подсказка : XviD
Продолжительность : 1 ч. 53 м.
Битрейт : 1639 Кбит/сек
Ширина : 720 пикселей
Высота : 304 пикселя
Соотношение сторон : 2,35:1
Частота кадров : 23,976 (24000/1001) кадра/сек
Цветовое пространство : YUV
Субдискретизация насыщенности : 4:2:0
Битовая глубина : 8 бит
Тип развёртки : Прогрессивная
Метод сжатия : С потерями
Бит/(Пиксели*Кадры) : 0.312
Размер потока : 1,30 Гбайт (89%)
Библиотека кодирования : XviD 1.2.1 (UTC 2008-12-04)
Аудио
Идентификатор : 1
Формат : AC-3
Формат/Информация : Audio Coding 3
Идентификатор кодека : 2000
Продолжительность : 1 ч. 53 м.
Вид битрейта : Постоянный
Битрейт : 192 Кбит/сек
Каналы : 2 канала
Расположение каналов : Front: L R
Частота : 48,0 КГц
Частота кадров : 31,250 кадров/сек (1536 SPF)
Битовая глубина : 16 бит
Метод сжатия : С потерями
Размер потока : 156 Мбайт (10%)
Выравнивание : Разделение по промежуткам
Продолжительность промежутка : 42 мс. (1,00 видеокадр)
Время предзагрузки промежутка : 500 мс.
ServiceKind/String : Complete Main
--Внимание!!! Присутствует реклама!--
Download / Скачать

Хотите скачать бесплатно? Зарегистрируйтесь на сайте (ссылка на регистрацию). Pirat.ca - самый быстрый торрент трекер в рунете!

Как скачивать  ·   Что такое торрент  ·   Рейтинг и ограничения

zvernight

Гроза морей

Пост 05-Апр-2018 17:55 (спустя 9 часов)

[Q] 

Спасибо, чтобы оценить сюжет в перемотке - потянет.
[Профиль]  [ЛС] 

vengaboy

Юнга

Пост 05-Апр-2018 21:26 (спустя 3 часа)

[Q] 

Благодарю. Больше нигде не найти. Странно, что для такого фильма не нашлось энтузиастов сделать запись в качестве получше.
[Профиль]  [ЛС] 

ktest0

Корсар

33

Пост 06-Апр-2018 12:40 (спустя 15 часов)

[Q] 

Спасибо за релиз! Подожду когда можно будет на "всё вот это вот" в хорошем качестве посмотреть... 27
[Профиль]  [ЛС] 

studentUA

Корсар

56

Пост 08-Апр-2018 22:18 (спустя 2 дня 9 часов)

[Q] 

Лара без сисек, нет уж, увольте...
[Профиль]  [ЛС] 

Kesseril

Шкипер

Пост 08-Апр-2018 23:18 (спустя 59 минут)

[Q] 

да это конечно упущение она всегда сисястая даже в играх, облик героический пострадал))))
[Профиль]  [ЛС] 

imyausera

Шкипер

Пост 08-Апр-2018 23:29 (спустя 10 минут)

[Q] 

ну наконец то! спасибо бро!
[Профиль]  [ЛС] 

Kesseril

Шкипер

Пост 09-Апр-2018 00:55 (спустя 1 час 26 минут)

[Q] 

первые 30 минут норм качество чтобы оценить но потом все расплывчато после рекламы говноказино херня не тс а камрип
[Профиль]  [ЛС] 

alersander

Корсар

Пост 13-Апр-2018 22:54 (спустя 4 дня)

[Q] 

подожду качество чтобы не портить впечатление
[Профиль]  [ЛС] 

bobkoff

Лоцман

Пост 09-Май-2018 17:58 (спустя 25 дней)

[Q] 

спасибо за работу, но качество наше всЁ
[Профиль]  [ЛС] 

Gari4

Флибустьер

Пост 07-Июн-2018 17:54 (спустя 28 дней)

[Q] 

Лара уже не та...

_________________
РЕБЯТ!! Подпишитесь на канал! Вам все равно, а мне приятно))
https://www.youtube.com/channel/UCHdnAvKKhkxeJvg3DQ...ew_as=subscriber
[Профиль]  [ЛС] 

Doctor Obnoxius

Шкипер

Пост 10-Июн-2018 19:21 (спустя 3 дня)

[Q] 

822311Благодарю. Больше нигде не найти. Странно, что для такого фильма не нашлось энтузиастов сделать запись в качестве получше.
За чем врать-то Вот: реклама недопустима Но это не суть - не отменяет заслуги Пиратки.
[Профиль]  [ЛС] 

Мания величия

Морской Волк

Пост 06-Июл-2018 00:13 (спустя 25 дней)

[Q] 

правильно говорит искать надо !!!!
Но качать будем тут!!!!!!!!!!!!!!!!!!

_________________
[Профиль]  [ЛС] 

exelero07

Флибустьер

Пост Сегодня 07:30 (спустя 13 дней)

[Q] 

да нормальный фильм на вечер
[Профиль]  [ЛС] 
Показать сообщения:    
Ответить на тему

Текущее время: Сегодня 13:39

Часовой пояс: GMT + 4



Вы не можете начинать темы
Вы не можете отвечать на сообщения
Вы не можете редактировать свои сообщения
Вы не можете удалять свои сообщения
Вы не можете голосовать в опросах
Вы не можете прикреплять файлы к сообщениям
Вы не можете скачивать файлы

Майнать ▼