Мир Юрского периода 2 / Jurassic World: Fallen Kingdom (Хуан Антонио Байона / Juan Antonio Bayona) [2018 г., Фантастика, Боевик, Приключения, TeleSynch, 720p] Dub

Ответить на тему
 
Автор
Сообщение

Пост 09-Июн-2018 14:23

[Q] 

AlexDjas

Флибустьер

--Мир Юрского периода 2 / Jurassic World: Fallen Kingdom--«Life finds a way»-- Производство: США, Испания
Год выпуска: 2018 г.
Жанр: Фантастика, Боевик, Приключения
Продолжительность: 01:58:01
Мировая премьера: 21 мая 2018
Российская премьера: 7 июня 2018, «UPI»
Перевод: Профессиональный (полное дублирование)
Режиссёр: Хуан Антонио Байона / Juan Antonio Bayona--В ролях: Брайс Даллас Ховард, Крис Пратт, Джефф Голдблюм, Тед Левайн, Джеймс Кромуэлл, Тоби Джонс, Б.Д. Вонг, Рейф Сполл, Даниэлла Пинеда, Джеральдин Чаплин--Описание: На острове Исла-Нублар, где не так давно располагался парк развлечений с динозаврами, правит бал дикая природа. Но без людей все далеко не так спокойно, как могло бы показаться. Основатели парка приняли решение построить его, несмотря на активный вулкан, расположенный в сердце острова. Вулкан пробудился и рискует потопить остров в лаве. Управляющая парка Клэр Дэринг уговаривает дрессировщика Оуэна Грэди вернуться в бывший парк и спасти динозавров от неминуемой гибели.-- Качество видео: TeleSynch
Контейнер: MKV
Стандарт разрешения: 720p
Видео кодек: MPEG4 AVC
Аудио кодек: AC3
Видео: AVC/H.264, 1280x536, ~ 3810 kbps, 23.976 fps
Аудио: 48 kHz, AC3 Dolby Digital, 2/0 (L,R) ch, ~384 kbps
Cубтитры: отсутствуют
Общее
Уникальный идентификатор : 163116958161721347182902197112427695307 (0x7AB72EF45B8F4044308B5850009ACCCB)
Полное имя : D:\Фильмы\Jurassic_World_Fallen_Kingdom_2018_TS_720p[pirat.ca].mkv
Формат : Matroska
Версия формата : Version 4 / Version 2
Размер файла : 3,46 Гбайт
Продолжительность : 1 ч. 58 м.
Режим общего битрейта : Переменный
Общий поток : 4196 Кбит/сек
Название фильма : Jurassic World Fallen Kingdom
Дата кодирования : UTC 2018-06-09 06:50:23
Программа кодирования : mkvmerge v23.0.0 ('The Bride Said No') 64-bit
Библиотека кодирования : libebml v1.3.6 + libmatroska v1.4.9
Видео
Идентификатор : 1
Формат : AVC
Формат/Информация : Advanced Video Codec
Профиль формата : High@L4.1
Настройки формата : CABAC / 4 Ref Frames
Параметр CABAC формата : Да
Параметр RefFrames формата : 4 кадра
Идентификатор кодека : V_MPEG4/ISO/AVC
Продолжительность : 1 ч. 58 м.
Вид битрейта : Переменный
Битрейт : 3810 Кбит/сек
Максимальный битрейт : 4000 Кбит/сек
Ширина : 1280 пикселей
Высота : 536 пикселей
Соотношение сторон : 2,40:1
Режим частоты кадров : Постоянный
Частота кадров : 23,976 кадра/сек
Частота кадров в оригинале : 47,952 (48000/1001) кадров/сек
Стандарт вещания : Component
Цветовое пространство : YUV
Субдискретизация насыщенности : 4:2:0
Битовая глубина : 8 бит
Тип развёртки : Прогрессивная
Бит/(Пиксели*Кадры) : 0.232
Размер потока : 3,14 Гбайт (91%)
Заголовок : Jurassic World Fallen Kingdom
Язык : English
Default : Да
Forced : Нет
Цветовой диапазон : Limited
Основные цвета : BT.709
Характеристики трансфера : BT.709
Коэффициенты матрицы : BT.709
Аудио
Идентификатор : 2
Формат : AC-3
Формат/Информация : Audio Coding 3
Идентификатор кодека : A_AC3
Продолжительность : 1 ч. 58 м.
Вид битрейта : Постоянный
Битрейт : 384 Кбит/сек
Каналы : 2 канала
Расположение каналов : Front: L R
Частота : 48,0 КГц
Частота кадров : 31,250 кадров/сек (1536 SPF)
Битовая глубина : 16 бит
Метод сжатия : С потерями
Размер потока : 324 Мбайт (9%)
Язык : Russian
ServiceKind/String : Complete Main
Default : Да
Forced : Нет
--Внимание!!! Присутствует реклама!!!--
Download / Скачать

Хотите скачать бесплатно? Зарегистрируйтесь на сайте (ссылка на регистрацию). Pirat.ca - самый быстрый торрент трекер в рунете!

Как скачивать  ·   Что такое торрент  ·   Рейтинг и ограничения

AlexDjas ®

Флибустьер

5410

Пост 09-Июн-2018 14:30 (спустя 6 минут)

[Q] 

Качество как обычно так себе, звук ничего (в принципе смотрибельно) так что если надумали скоротать время, то смотрите сами. Ну а остальные ждем качества )))

_________________
- Один терапевт - это 1024 гигапевта, или 1048576 мегапевтов!
[Профиль]  [ЛС] 

Kmscom

Шкипер

Пост 10-Июн-2018 12:59 (спустя 22 часа)

[Q] 

Сюжет:
Опять какая то дура уговаривает профессионала спасти "котиков".
И понеслось....
[Профиль]  [ЛС] 

Victorsalata

Корсар

Пост 10-Июн-2018 17:13 (спустя 4 часа)

[Q] 

Мне понравился. Буду на раздаче.
[Профиль]  [ЛС] 

KTroY

Морской Волк

Пост 10-Июн-2018 22:47 (спустя 5 часов)

[Q] 

Спасибо!!! щас заценим ;)
[Профиль]  [ЛС] 

Alhimik

Шкипер

17

Пост 10-Июн-2018 23:13 (спустя 25 минут)

[Q] 

А чего размер такой конский 3,46?
Камрип качество и 3,46..... тут 1,46 то много. Нахрена?
[Профиль]  [ЛС] 

pvm

Флибустьер

Пост 11-Июн-2018 00:44 (спустя 1 час 31 минута)

[Q] 

Надо обождать качество
[Профиль]  [ЛС] 

KTroY

Морской Волк

Пост 11-Июн-2018 17:13 (спустя 16 часов)

[Q] 

дяя... видеоряд подкачал, еще бы камерой не дергал, а звук достойный для экранки
[Профиль]  [ЛС] 

Мания величия

Морской Волк

Пост 06-Июл-2018 00:19 (спустя 24 дня)

[Q] 

с удовольствием подожду качества!
Спасибо!!!

_________________
[Профиль]  [ЛС] 

ГИППАРРД

Корсар

2

Пост 08-Июл-2018 18:55 (спустя 2 дня 18 часов)

[Q] 

Долго ждали спасибо релизеру что выложили!!!!
[Профиль]  [ЛС] 
Показать сообщения:    
Ответить на тему

Текущее время: Сегодня 12:56

Часовой пояс: GMT + 4



Вы не можете начинать темы
Вы не можете отвечать на сообщения
Вы не можете редактировать свои сообщения
Вы не можете удалять свои сообщения
Вы не можете голосовать в опросах
Вы не можете прикреплять файлы к сообщениям
Вы не можете скачивать файлы

Майнать ▼