Tomb Raider: Лара Крофт / Tomb Raider (Роар Утхауг/Roar Uthaug) [2018 г., Боевик, Приключения, WEB-DL, 1080p] MVO

Ответить на тему
 
Автор
Сообщение

Пост 01-Июн-2018 13:41

[Q] 

AlexDjas

Флибустьер

--Tomb Raider: Лара Крофт / Tomb Raider--«Her legend begins»-- Производство: Великобритания, США / Metro-Goldwyn-Mayer (MGM), Square Enix Inc., Warner Bros. Pictures
Год выпуска: 2018 г.
Жанр: Боевик, Приключения
Продолжительность: 01:57:48
Мировая премьера: 2 марта 2018
Российская премьера: 15 марта 2018, «Каро-Премьер»
Перевод: Профессиональный (многоголосый, закадровый) [HDrezka Studio]
Режиссёр: Роар Утхауг/Roar Uthaug--В ролях: Алисия Викандер, Доминик Уэст, Уолтон Гоггинс, Дэниэл Ву, Кристин Скотт Томас, Дерек Джекоби, Александр Виллауме, Тамер Барджаг, Эдриан Коллинз, Кинэн Эррисон--Описание: Лара Крофт — весьма самостоятельная дочь эксцентричного искателя приключений, который пропал, едва она стала подростком. Теперь ей двадцать один, она бесцельно проживает свою жизнь, курьером рассекая на байке по забитым улицам восточного Лондона. Решительно настроенная пробиться сама, она отказывается брать на себя руководство глобальной империей отца, столь же категорично отвергая мысль о том, что он действительно пропал. Слыша советы о том, что ей нужно смириться с этим фактом и жить дальше после семи лет бесплодных поисков, Лара уже и сама не понимает, что же заставляет ее распутывать обстоятельства его таинственного исчезновения.-- Качество видео: WEB-DL
Контейнер: MKV
Стандарт разрешения: 1080p
Видео кодек: MPEG4 AVC
Аудио кодек: AC3
Видео: H.264/AVC, 1920x800 (2.40:1), ~ 5 788 kbps, 23.976 fps
Аудио: AC3, 48.0 kHz, 2.0 ch, 192 kbps, - русский [HDrezka Studio]
Cубтитры: отсутствуют
Общее
Уникальный идентификатор : 298724355423185716057397273921971488033 (0xE0BC37D6E4231D84A396A30D53670521)
Полное имя : G:\Торрент\Tomb_Raider_2018_WEB-DL_1080p [pirat.ca].mkv
Формат : Matroska
Версия формата : Version 4 / Version 2
Размер файла : 4,92 Гбайт
Продолжительность : 1 ч. 57 м.
Режим общего битрейта : Переменный
Общий поток : 5981 Кбит/сек
Название фильма : Tomb_Raider_2018
Дата кодирования : UTC 2018-06-02 10:08:26
Программа кодирования : mkvmerge v21.0.0 ('Tardigrades Will Inherit The Earth') 64-bit
Библиотека кодирования : libebml v1.3.5 + libmatroska v1.4.8
Видео
Идентификатор : 1
Формат : AVC
Формат/Информация : Advanced Video Codec
Профиль формата : High@L4
Настройки формата : CABAC / 4 Ref Frames
Параметр CABAC формата : Да
Параметр RefFrames формата : 4 кадра
Идентификатор кодека : V_MPEG4/ISO/AVC
Продолжительность : 1 ч. 57 м.
Вид битрейта : Переменный
Битрейт : 5788 Кбит/сек
Максимальный битрейт : 15,0 Мбит/сек
Ширина : 1920 пикселей
Высота : 800 пикселей
Соотношение сторон : 2,40:1
Режим частоты кадров : Постоянный
Частота кадров : 23,976 (24000/1001) кадра/сек
Цветовое пространство : YUV
Субдискретизация насыщенности : 4:2:0
Битовая глубина : 8 бит
Тип развёртки : Прогрессивная
Бит/(Пиксели*Кадры) : 0.157
Размер потока : 4,76 Гбайт (97%)
Заголовок : Tomb_Raider_2018
Язык : English
Default : Да
Forced : Нет
Цветовой диапазон : Limited
Основные цвета : BT.709
Характеристики трансфера : BT.709
Коэффициенты матрицы : BT.709
Аудио
Идентификатор : 2
Формат : AC-3
Формат/Информация : Audio Coding 3
Идентификатор кодека : A_AC3
Продолжительность : 1 ч. 57 м.
Вид битрейта : Постоянный
Битрейт : 192 Кбит/сек
Каналы : 2 канала
Расположение каналов : Front: L R
Частота : 48,0 КГц
Частота кадров : 31,250 кадров/сек (1536 SPF)
Битовая глубина : 16 бит
Метод сжатия : С потерями
Размер потока : 162 Мбайт (3%)
Заголовок : MVO (HDrezka Studio)
Язык : Russian
ServiceKind/String : Complete Main
Default : Да
Forced : Нет
Download / Скачать

Хотите скачать бесплатно? Зарегистрируйтесь на сайте (ссылка на регистрацию). Pirat.ca - самый быстрый торрент трекер в рунете!

Как скачивать  ·   Что такое торрент  ·   Рейтинг и ограничения



Последний раз редактировалось: AlexDjas (2018-06-02 16:11), всего редактировалось 5 раз(а)

Пост 02-Июн-2018 12:49 (спустя 23 часа)

Топик был перенесен из форума Зарубежное Кино (Трюм) в форум Новинки (BD/WEB-DL/HDTV/DVD)
gross1978
 

SM 96

Легенда

Пост 02-Июн-2018 21:40 (спустя 1 день 7 часов)

[Q] 

Спасибо!!! Лови бочку
[Профиль]  [ЛС] 

koljan-2008

Флибустьер

5

Пост 02-Июн-2018 22:07 (спустя 26 минут)

[Q] 

Вот и перевод ном! Забираю! Спасибо!

_________________
Нужно лишь верить в мечту. Искренне верить! И тогда всё получится!
[Профиль]  [ЛС] 

Region-89

Легенда

552

Пост 03-Июн-2018 00:04 (спустя 1 час 56 минут)

[Q] 

ждал почему то большего от фильма dj

_________________
[Профиль]  [ЛС] 

SilverScorpion

Штурман

Пост 03-Июн-2018 10:07 (спустя 10 часов)

[Q] 

Спасибо!!! Автору респект!!!
[Профиль]  [ЛС] 

El Demo

Штурман

Пост 03-Июн-2018 21:45 (спустя 11 часов)

[Q] 

мне понравился, смотрел в кинотеатре, теперь кину в коллекцию!!! Спасибо!!!
[Профиль]  [ЛС] 

alersander

Корсар

Пост 03-Июн-2018 22:27 (спустя 42 минуты)

[Q] 

ждал хорошего качества, сейчас заценим Лови бочку
[Профиль]  [ЛС] 

fishman

Флибустьер

Пост 06-Июн-2018 01:22 (спустя 2 дня 2 часа)

[Q] 

Спасибо!!! rum

_________________
|___|___|___|___|___|___|___|__|__
__|__|__|_Биться головой_|___|___|
|___|___|___|__сюда!!___|___|__|__
__|___|___|___|___|___|___|__|__
[Профиль]  [ЛС] 

bodomsaratau

Шкипер

Пост 06-Июн-2018 12:52 (спустя 11 часов)

[Q] 

за озвучку Спасибо!!!
[Профиль]  [ЛС] 

grosboy

Гроза морей

Пост 12-Июн-2018 00:45 (спустя 5 дней)

[Q] 

Фильм хороший, но чего то не хватило, осадок остался...

_________________
Щастье есть - его не может не быть...
[Профиль]  [ЛС] 

redfield

Морской Волк

Пост 16-Июн-2018 01:11 (спустя 4 дня)

[Q] 

Ой как не дотянули, и до игры далеко и свой сюжет прямолинейный как...
[Профиль]  [ЛС] 

head280

Морской Волк

Пост 01-Июл-2018 18:51 (спустя 15 дней)

[Q] 

Ощущается напряг в голивуде с нормальными сценариями, актрисами, диалогами,..... Лара Крофт не та уже. Джоли интересней смотрелась на порядок.
[Профиль]  [ЛС] 
Показать сообщения:    
Ответить на тему

Текущее время: Сегодня 13:33

Часовой пояс: GMT + 4



Вы не можете начинать темы
Вы не можете отвечать на сообщения
Вы не можете редактировать свои сообщения
Вы не можете удалять свои сообщения
Вы не можете голосовать в опросах
Вы не можете прикреплять файлы к сообщениям
Вы не можете скачивать файлы

Майнать ▼