Излом времени / A Wrinkle in Time (Ава ДюВерней / Ava DuVernay) [2018 г., фантастика, фэнтези, приключения, семейный, BDRip, 1080p] Dub (iTunes) + Sub (Rus)

Ответить на тему
 
Автор
Сообщение

Пост 08-Июн-2018 13:13

[Q] 

AlexDjas

Флибустьер

--Излом времени / A Wrinkle in Time--«Be a warrior»-- Производство: США, Walt Disney Pictures
Год выпуска: 2018 г.
Жанр: фантастика, фэнтези, приключения, семейный
Продолжительность: 01:49:37
Мировая премьера: 26 февраля 2018
Российская премьера: 8 марта 2018, «WDSSPR»
Перевод: Профессиональный (полное дублирование) [iTunes]
Режиссёр: Ава ДюВерней / Ava DuVernay--В ролях: Сторм Рейд, Опра Уинфри, Риз Уизерспун, Минди Кейлинг, Леви Миллер, Дерик Маккейб, Крис Пайн, Гугу Эмбата-Ро, Зак Галифианакис, Майкл Пенья--Описание: Юная Мэг вместе с младшим братом и школьным приятелем решает отправиться на поиски своего отца, учёного-физика, пропавшего в ходе научного эксперимента. Найти его предстоит не в привычном мире, а в таинственных изломах времени и пространства, где понятие реальности относительно и ничему нельзя верить! Выбраться из фантастических миров и победить тьму, которая распространяется по вселенной, можно, только изучив себя и приняв свои недостатки.-- Качество видео: BDRip
Контейнер: MKV
Стандарт разрешения: 1080p
Видео кодек: MPEG4 AVC
Аудио кодек: AC3
Видео: H264/AVC, 1920х804 (2,40:1), ~ 10,8 Mbps, 23,976 fps
Аудио: 48 kHz, AC3 Dolby Digital, 3/2 (L,C,R,l,r) + LFE ch, ~384 kbps - Русский
Cубтитры: Русские (Full)
Общее
Уникальный идентификатор : 251594441071099404220077787500515338302 (0xBD4753A882C0A123BF7C752ED99EA83E)
Полное имя : D:\Фильмы\A_Wrinkle_in_Time_2018_BDRip_1080p[pirat.ca].mkv
Формат : Matroska
Версия формата : Version 4 / Version 2
Размер файла : 8,54 Гбайт
Продолжительность : 1 ч. 49 м.
Общий поток : 11,1 Мбит/сек
Название фильма : A Wrinkle in Time
Дата кодирования : UTC 2018-06-08 11:58:27
Программа кодирования : mkvmerge v23.0.0 ('The Bride Said No') 64-bit
Библиотека кодирования : libebml v1.3.6 + libmatroska v1.4.9
Видео
Идентификатор : 1
Формат : AVC
Формат/Информация : Advanced Video Codec
Профиль формата : [email protected]
Настройки формата : CABAC / 5 Ref Frames
Параметр CABAC формата : Да
Параметр RefFrames формата : 5 кадров
Идентификатор кодека : V_MPEG4/ISO/AVC
Продолжительность : 1 ч. 49 м.
Битрейт : 10,8 Мбит/сек
Ширина : 1920 пикселей
Высота : 804 пикселя
Соотношение сторон : 2,40:1
Режим частоты кадров : Постоянный
Частота кадров : 23,976 (24000/1001) кадра/сек
Цветовое пространство : YUV
Субдискретизация насыщенности : 4:2:0
Битовая глубина : 8 бит
Тип развёртки : Прогрессивная
Бит/(Пиксели*Кадры) : 0.291
Размер потока : 8,24 Гбайт (97%)
Заголовок : A Wrinkle in Time
Библиотека кодирования : x264 core 142 r2431+42 c69a006 tMod [[email protected]:2:0 X86_64]
Настройки программы : cabac=1 / ref=5 / deblock=1:-3:-3 / analyse=0x3:0x113 / me=umh / subme=10 / psy=1 / fade_compensate=0.00 / psy_rd=1.00:0.05 / mixed_ref=1 / me_range=48 / chroma_me=1 / trellis=2 / 8x8dct=1 / cqm=0 / deadzone=21,11 / fast_pskip=0 / chroma_qp_offset=-2 / threads=48 / lookahead_threads=6 / sliced_threads=0 / nr=0 / decimate=1 / interlaced=0 / bluray_compat=0 / constrained_intra=0 / fgo=0 / bframes=8 / b_pyramid=2 / b_adapt=2 / b_bias=0 / direct=3 / weightb=1 / open_gop=0 / weightp=2 / keyint=250 / keyint_min=23 / scenecut=40 / intra_refresh=0 / rc_lookahead=40 / rc=crf / mbtree=0 / crf=16.3000 / qcomp=0.60 / qpmin=0:0:0 / qpmax=69:69:69 / qpstep=4 / vbv_maxrate=40000 / vbv_bufsize=30000 / crf_max=0.0 / nal_hrd=none / filler=0 / ip_ratio=1.40 / pb_ratio=1.30 / aq=3:0.80 / aq-sensitivity=10.00 / aq-factor=1.00:1.00:1.00 / aq2=0 / aq3=0
Язык : English
Default : Да
Forced : Нет
Цветовой диапазон : Limited
Коэффициенты матрицы : BT.709
Аудио
Идентификатор : 2
Формат : AC-3
Формат/Информация : Audio Coding 3
Идентификатор кодека : A_AC3
Продолжительность : 1 ч. 49 м.
Вид битрейта : Постоянный
Битрейт : 384 Кбит/сек
Каналы : 6 каналов
Расположение каналов : Front: L C R, Side: L R, LFE
Частота : 48,0 КГц
Частота кадров : 31,250 кадров/сек (1536 SPF)
Битовая глубина : 16 бит
Метод сжатия : С потерями
Размер потока : 302 Мбайт (3%)
Заголовок : iTunes
Язык : Russian
ServiceKind/String : Complete Main
Default : Да
Forced : Да
Текст
Идентификатор : 3
Формат : UTF-8
Идентификатор кодека : S_TEXT/UTF8
Идентификатор кодека/Информация : UTF-8 Plain Text
Продолжительность : 1 ч. 38 м.
Битрейт : 74 бит/сек
ElementCount : 1302
Размер потока : 53,7 Кбайт (0%)
Заголовок : Full
Язык : Russian
Default : Нет
Forced : Нет
Download / Скачать

Хотите скачать бесплатно? Зарегистрируйтесь на сайте (ссылка на регистрацию). Pirat.ca - самый быстрый торрент трекер в рунете!

Как скачивать  ·   Что такое торрент  ·   Рейтинг и ограничения



Последний раз редактировалось: AlexDjas (2018-06-08 18:46), всего редактировалось 3 раз(а)

AlexDjas ®

Флибустьер

6402

Пост 08-Июн-2018 14:29 (спустя 1 час 16 минут)

[Q] 

Всем приятного просмотра!!!

_________________
- Один терапевт - это 1024 гигапевта, или 1048576 мегапевтов!
[Профиль]  [ЛС] 

Дядя Витя

61118

Пост 08-Июн-2018 21:40 (спустя 7 часов)

[Q] 

827231Всем приятного просмотра!!!
Пиратка рулез!!!

_________________
?
[Профиль]  [ЛС] 

moscowpan

Гроза морей

4441

Пост 08-Июн-2018 22:03 (спустя 22 минуты)

[Q] 

спасибо, глянем

_________________
[Профиль]  [ЛС] 

koljan-2008

Флибустьер

10

Пост 10-Июн-2018 08:47 (спустя 1 день 10 часов)

[Q] 

Спасибо, глянем! Лови бочку

_________________
Нужно лишь верить в мечту. Искренне верить! И тогда всё получится!
[Профиль]  [ЛС] 

Sector_X

311

Пост 10-Июн-2018 12:25 (спустя 3 часа)

[Q] 

Спасибо!!! !COOL!

_________________

[Профиль]  [ЛС] 

aka_johnny

Флибустьер

Пост 10-Июн-2018 14:30 (спустя 2 часа 4 минуты)

[Q] 

стоит смотреть? интересно???)
[Профиль]  [ЛС] 

Kasrg

Лоцман

Пост 12-Июн-2018 08:20 (спустя 1 день 17 часов)

[Q] 

стоит смотреть? интересно???)
Редкостный бред!
[Профиль]  [ЛС] 

xgoliy

Морской Волк

Пост 01-Июл-2018 11:57 (спустя 19 дней)

[Q] 

Не мое Трафик потрачен зря!
[Профиль]  [ЛС] 

exelero07

Гроза морей

Пост 21-Июл-2018 00:02 (спустя 19 дней)

[Q] 

фильм явно для школьников
[Профиль]  [ЛС] 
Показать сообщения:    
Ответить на тему

Текущее время: Сегодня 10:08

Часовой пояс: GMT + 4



Вы не можете начинать темы
Вы не можете отвечать на сообщения
Вы не можете редактировать свои сообщения
Вы не можете удалять свои сообщения
Вы не можете голосовать в опросах
Вы не можете прикреплять файлы к сообщениям
Вы не можете скачивать файлы

Майнать ▼