Тренер (Данила Козловский) [2018, драма, спорт, TS]

Ответить на тему
 
Автор
Сообщение

Пост 21-Апр-2018 13:56

[Q] 

Су-34

Гроза морей

Тренер
-
Год выпуска: 2018
Страна: Россия
Жанр: драма, спорт
Продолжительность: 01:52:29
Перевод: Не требуется [Русский]- Режиссер: Данила Козловский- В ролях:
-Данила Козловский (Юрий Столешников), Владимир Ильин (Бергер), Андрей Смоляков (отец Столешникова), Ольга Зуева (Варя), Ирина Горбачева (Лара), Виктор Вержбицкий (мэр), Мария Лобанова (Даша), Павел Ворожцов (Валдис), Игорь Гордин (президент Спартака), Александр Ильин мл. (механик), Александр Обласов (Витя), Дмитрий Чеботарёв (Масяня)- Описание:
Футболист национальной сборной Юрий Столешников в ответственный момент не забивает пенальти. После досадной ошибки Столешников покидает сборную, завершает карьеру и становится тренером маленькой провинциальной команды. Именно с этим клубом Столешникову предстоит совершить чудо и вновь поверить в себя.-Семпл: http://multi-up.com/1195685
Кинопоиск: https://www.kinopoisk.ru/film/trener-2018-981230/
Примечание: Есть реклама!- Качество: TS
Формат: AVI
Видео кодек: XviD
Аудио кодек: AC3
Видео: XviD, 720x304 (2.35:1), 1652 kbps, 23,976 fps, 0,315 bpp
Аудио: AC3 / 2.0 / 48 kHz / 192 kbps /-
General
Complete name : D:\Torrents\TreNeR.2O18.O.TS.14OOMB.avi
Format : AVI
Format/Info : Audio Video Interleave
File size : 1.46 GiB
Duration : 1 h 52 min
Overall bit rate : 1 854 kb/s
Writing application : VirtualDubMod 1.5.10.2 (build 2540/release)
Writing library : VirtualDubMod build 2540/release
Video
ID : 0
Format : MPEG-4 Visual
Format profile : Advanced Simple@L5
Format settings, BVOP : 2
Format settings, QPel : No
Format settings, GMC : No warppoints
Format settings, Matrix : Default (MPEG)
Codec ID : XVID
Codec ID/Hint : XviD
Duration : 1 h 52 min
Bit rate : 1 653 kb/s
Width : 720 pixels
Height : 304 pixels
Display aspect ratio : 2.35:1
Frame rate : 23.976 (24000/1001) FPS
Color space : YUV
Chroma subsampling : 4:2:0
Bit depth : 8 bits
Scan type : Progressive
Compression mode : Lossy
Bits/(Pixel*Frame) : 0.315
Stream size : 1.30 GiB (89%)
Writing library : XviD 1.2.1 (UTC 2008-12-04)
Audio
ID : 1
Format : AC-3
Format/Info : Audio Coding 3
Mode extension : CM (complete main)
Format settings, Endianness : Big
Codec ID : 2000
Duration : 1 h 52 min
Bit rate mode : Constant
Bit rate : 192 kb/s
Channel(s) : 2 channels
Channel positions : Front: L R
Sampling rate : 48.0 kHz
Frame rate : 31.250 FPS (1536 spf)
Compression mode : Lossy
Stream size : 154 MiB (10%)
Alignment : Split accross interleaves
Interleave, duration : 42 ms (1.00 video frame)
Interleave, preload duration : 500 ms
Download / Скачать

Хотите скачать бесплатно? Зарегистрируйтесь на сайте (ссылка на регистрацию). Pirat.ca - самый быстрый торрент трекер в рунете!

Как скачивать  ·   Что такое торрент  ·   Рейтинг и ограничения

Doctor Obnoxius

Шкипер

Пост 21-Апр-2018 23:13 (спустя 9 часов)

[Q] 

Качество дровяное. Стоит подождать хотя-бы DVDscr.
[Профиль]  [ЛС] 

kiss2007

Морской Волк

Пост 22-Апр-2018 20:57 (спустя 21 час)

[Q] 

врагу не сдаётся наш гордый варяг)))) смотрим как есть, интересно жыж!
Лови бочку
[Профиль]  [ЛС] 

Ark87

Лоцман

Пост 23-Апр-2018 18:29 (спустя 21 час)

[Q] 

ходил в кино на него-понравилось)
[Профиль]  [ЛС] 

Skala973

Флибустьер

Пост 27-Апр-2018 02:17 (спустя 3 дня)

[Q] 

Да, фильм не плох. Вроде бы сюжет целостный, ну и так всё в норме.
Но очень это плохим подтекстом отдаёт, если присмотреться к тому, что скоро начнётся Чемпионат Мира по футболу.
И крайне большое подозрение у меня есть (да думаю у 99% населения России), что сборная России даже из группы не выйдет.
А фильм - ... это фантастика. А вот за окном жизнь реальная.
[Профиль]  [ЛС] 

antord1

Лоцман

Пост 01-Май-2018 11:55 (спустя 4 дня)

[Q] 

Хоть бы смотрели что заливаете!!! Обрезана концовка!!!
[Профиль]  [ЛС] 

Zubastik

Боцман

Пост 13-Май-2018 01:00 (спустя 11 дней)

[Q] 

Зачем лить без концовки ?
[Профиль]  [ЛС] 

avtocity74@gmail.com

Лоцман

Пост 13-Июн-2018 11:25 (спустя 1 месяц)

[Q] 

Зачем лить без концовки ? Ндаааааааааааааааа..........................., что смотрел что не смотрел !!!!!!!!!! Трафик потрачен зря!
[Профиль]  [ЛС] 

zvezda_2s

Флибустьер

Пост Сегодня 07:13 (спустя 1 месяц 6 дней)

[Q] 

Качество полный отстой!
[Профиль]  [ЛС] 
Показать сообщения:    
Ответить на тему

Текущее время: Сегодня 12:24

Часовой пояс: GMT + 4



Вы не можете начинать темы
Вы не можете отвечать на сообщения
Вы не можете редактировать свои сообщения
Вы не можете удалять свои сообщения
Вы не можете голосовать в опросах
Вы не можете прикреплять файлы к сообщениям
Вы не можете скачивать файлы

Майнать ▼