Акт мести / Acts of Violence (Бретт Доноху / Brett Donowho) [2018 г., боевик, криминал, BDRip, 1080p] MVO [iTunes]

Ответить на тему
 
Автор
Сообщение

Пост 13-Июн-2018 12:59

[Q] 

AlexDjas

Гроза морей

--Акт мести / Acts of Violence-- Производство: Канада
Год выпуска: 2018 г.
Жанр: боевик, криминал
Продолжительность: 01:32:30
Мировая премьера: 12 января 2018
Перевод: Профессиональный (многоголосый, закадровый) [iTunes]
Режиссёр: Бретт Доноху / Brett Donowho--В ролях: Брюс Уиллис, Коул Хаузер, Шон Эшмор, Эштон Холмс, Мелисса Болона, Шон Броснан, София Буш, Майк Эппс, Тиффани Броувер, Дженна Б. Келли--Описание: Чтобы спасти свою невесту, которая попала в лапы торговцев людьми Роман должен вспомнить свои военные навыки и объединить усилия с бывшими сослуживцами и жестким полицейским, расследующим подобные дела.-- Качество видео: BDRip
Контейнер: MKV
Стандарт разрешения: 1080p
Видео кодек: MPEG4 AVC
Аудио кодек: AC3
Видео: AVC/H.264, 1920x800, ~6385 Кbps, 23.976 fps
Аудио: 48 kHz, AC3 Dolby Digital, 3/2 (L,C,R,l,r) + LFE ch, ~384 kbps
Cубтитры: отсутствуют
Общее
Уникальный идентификатор : 33245805589703098241753845466634249795 (0x1902E8C4AD3D7AF2BD4E47412BA9E643)
Полное имя : D:\pirat\Acts_Of_Violence_2018_BDRip_1080p[pirat.ca].mkv
Формат : Matroska
Версия формата : Version 4 / Version 2
Размер файла : 4,36 Гбайт
Продолжительность : 1 ч. 32 м.
Общий поток : 6751 Кбит/сек
Название фильма : Acts Of Violence
Дата кодирования : UTC 2018-06-13 06:09:36
Программа кодирования : mkvmerge v24.0.0 ('Beyond The Pale') 64-bit
Библиотека кодирования : libebml v1.3.6 + libmatroska v1.4.9
Видео
Идентификатор : 1
Формат : AVC
Формат/Информация : Advanced Video Codec
Профиль формата : [email protected]
Настройки формата : CABAC / 5 Ref Frames
Параметр CABAC формата : Да
Параметр RefFrames формата : 5 кадров
Идентификатор кодека : V_MPEG4/ISO/AVC
Продолжительность : 1 ч. 32 м.
Битрейт : 6385 Кбит/сек
Ширина : 1920 пикселей
Высота : 800 пикселей
Соотношение сторон : 2,40:1
Режим частоты кадров : Постоянный
Частота кадров : 23,976 (23976/1000) кадра/сек
Цветовое пространство : YUV
Субдискретизация насыщенности : 4:2:0
Битовая глубина : 8 бит
Тип развёртки : Прогрессивная
Бит/(Пиксели*Кадры) : 0.173
Размер потока : 4,11 Гбайт (94%)
Заголовок : Acts Of Violence
Библиотека кодирования : x264 core 155 r2901 7d0ff22
Настройки программы : cabac=1 / ref=5 / deblock=1:-3:-3 / analyse=0x3:0x133 / me=umh / subme=11 / psy=1 / psy_rd=1.00:0.01 / mixed_ref=1 / me_range=32 / chroma_me=1 / trellis=2 / 8x8dct=1 / cqm=0 / deadzone=21,11 / fast_pskip=0 / chroma_qp_offset=-3 / threads=12 / lookahead_threads=2 / sliced_threads=0 / nr=0 / decimate=1 / interlaced=0 / bluray_compat=0 / constrained_intra=0 / bframes=8 / b_pyramid=2 / b_adapt=2 / b_bias=0 / direct=3 / weightb=1 / open_gop=0 / weightp=2 / keyint=240 / keyint_min=23 / scenecut=40 / intra_refresh=0 / rc_lookahead=60 / rc=2pass / mbtree=1 / bitrate=6385 / ratetol=1.0 / qcomp=0.60 / qpmin=0 / qpmax=69 / qpstep=4 / cplxblur=20.0 / qblur=0.5 / vbv_maxrate=30000 / vbv_bufsize=33000 / nal_hrd=none / filler=0 / ip_ratio=1.40 / aq=3:0.80
Язык : English
Default : Да
Forced : Нет
Аудио
Идентификатор : 2
Формат : AC-3
Формат/Информация : Audio Coding 3
Идентификатор кодека : A_AC3
Продолжительность : 1 ч. 32 м.
Вид битрейта : Постоянный
Битрейт : 384 Кбит/сек
Каналы : 6 каналов
Расположение каналов : Front: L C R, Side: L R, LFE
Частота : 48,0 КГц
Частота кадров : 31,250 кадров/сек (1536 SPF)
Битовая глубина : 16 бит
Метод сжатия : С потерями
Размер потока : 254 Мбайт (6%)
Заголовок : MVO | iTunes
Язык : Russian
ServiceKind/String : Complete Main
Default : Да
Forced : Нет
Download / Скачать

Хотите скачать бесплатно? Зарегистрируйтесь на сайте (ссылка на регистрацию). Pirat.ca - самый быстрый торрент трекер в рунете!

Как скачивать  ·   Что такое торрент  ·   Рейтинг и ограничения

Alingva

Легенда

493

Пост 13-Июн-2018 13:55 (спустя 56 минут)

[Q] 

Спасибо!!! посмотрим!!!

_________________
Если Вам кажется что у Вас нимб над головой, то не обращайте на него внимание - это просто мания величия!
[Профиль]  [ЛС] 

alersander

Корсар

Пост 13-Июн-2018 19:00 (спустя 5 часов)

[Q] 

Лови бочку Посмотрим
[Профиль]  [ЛС] 

demon-292

Корсар

Пост 13-Июн-2018 19:39 (спустя 39 минут)

[Q] 

Лови бочку Спасибо! Будем поглядеть киноху про старого лысого дядьку! Прямо в зеркало смотрю)))))
[Профиль]  [ЛС] 

Kmscom

Шкипер

Пост 13-Июн-2018 21:43 (спустя 2 часа 3 минуты)

[Q] 

Устал уж дедушка... отпустите его демоны
[Профиль]  [ЛС] 

v230v

Корсар

Пост 14-Июн-2018 14:26 (спустя 16 часов)

[Q] 

спасибо, посмотрим!!!
[Профиль]  [ЛС] 

gosha766

Шкипер

Пост 15-Июн-2018 07:19 (спустя 16 часов)

[Q] 

Спасибо.
Ждали.
[Профиль]  [ЛС] 

zmaksimz

Корсар

Пост 15-Июн-2018 11:37 (спустя 4 часа)

[Q] 

Ради Брюса гляну
[Профиль]  [ЛС] 

redfield

Морской Волк

Пост 16-Июн-2018 01:04 (спустя 13 часов)

[Q] 

Виллис как и все в ипотеку влез чтоль?
[Профиль]  [ЛС] 

SwordFish

Корсар

1348

Пост 01-Июл-2018 11:26 (спустя 15 дней)

[Q] 

На разок посмотреть и скоротать время сойдет
[Профиль]  [ЛС] 

exelero07

Гроза морей

Пост 21-Июл-2018 00:31 (спустя 19 дней)

[Q] 

обычный боевичок. Брюс, когда в нормальном фильме снимешься?
[Профиль]  [ЛС] 
Показать сообщения:    
Ответить на тему

Текущее время: Сегодня 05:16

Часовой пояс: GMT + 4



Вы не можете начинать темы
Вы не можете отвечать на сообщения
Вы не можете редактировать свои сообщения
Вы не можете удалять свои сообщения
Вы не можете голосовать в опросах
Вы не можете прикреплять файлы к сообщениям
Вы не можете скачивать файлы

Майнать ▼