Хан Соло: Звёздные Войны. Истории / Solo: A Star Wars Story (Рон Ховард / Ron Howard) [2018 г., фантастика, фэнтези, боевик, приключения, TeleSynch] Dub

Ответить на тему
 
Автор
Сообщение

Пост 05-Июн-2018 09:23

[Q] 

AlexDjas

Флибустьер

--Хан Соло: Звёздные Войны. Истории / Solo: A Star Wars Story--«Never tell him the odds»-- Производство: США
Год выпуска: 2018 г.
Жанр: фантастика, фэнтези, боевик, приключения
Продолжительность: 02:07:36
Мировая премьера: 10 мая 2018
Российская премьера: 24 мая 2018, «WDSSPR»
Перевод: Профессиональный (полное дублирование)
Режиссёр: Рон Ховард / Ron Howard--В ролях: Олден Эренрайк, Йонас Суотамо, Вуди Харрельсон, Эмилия Кларк, Дональд Гловер, Тэнди Ньютон, Фиби Уоллер-Бридж, Пол Беттани, Джон Фавро, Эрин Келлиман--Описание: Фильм расскажет о похождениях юного космического сорвиголовы Хана Соло и его верного напарника Чубакки и о том, как они стали самыми быстрыми пилотами и самыми хитрыми контрабандистами далёкой Галактики.-- Качество видео: TeleSynch
Контейнер: MKV
Видео кодек: XviD
Аудио кодек: AC3
Видео: 720x304 (2.37:1), 23.976 fps, XviD build 50 ~1331 kbps avg, 0.25 bit/pixel
Аудио: 48 kHz, AC3 Dolby Digital, 2/0 (L,R) ch, ~192 kbps
Cубтитры: отсутствуют
Общее
Полное имя : D:\торрент\Xan-solo.2O18.D.TS[pirat.ca].avi
Формат : AVI
Формат/Информация : Audio Video Interleave
Размер файла : 1,37 Гбайт
Продолжительность : 2 ч. 7 м.
Общий поток : 1533 Кбит/сек
Программа кодирования : VirtualDubMod 1.5.10.2 (build 2540/release)
Библиотека кодирования : VirtualDubMod build 2540/release
Видео
Идентификатор : 0
Формат : MPEG-4 Visual
Профиль формата : Advanced [email protected]
Настройки формата : BVOP2
Параметр BVOP формата : 2
Параметр QPel формата : Нет
Параметр GMC формата : Без точки перехода
Параметр матрицы формата : Default (MPEG)
Идентификатор кодека : XVID
Идентификатор кодека/Подсказка : XviD
Продолжительность : 2 ч. 7 м.
Битрейт : 1332 Кбит/сек
Ширина : 720 пикселей
Высота : 304 пикселя
Соотношение сторон : 2,35:1
Частота кадров : 23,976 (24000/1001) кадра/сек
Цветовое пространство : YUV
Субдискретизация насыщенности : 4:2:0
Битовая глубина : 8 бит
Тип развёртки : Прогрессивная
Метод сжатия : С потерями
Бит/(Пиксели*Кадры) : 0.254
Размер потока : 1,19 Гбайт (87%)
Библиотека кодирования : XviD 1.2.1 (UTC 2008-12-04)
Аудио
Идентификатор : 1
Формат : AC-3
Формат/Информация : Audio Coding 3
Идентификатор кодека : 2000
Продолжительность : 2 ч. 7 м.
Вид битрейта : Постоянный
Битрейт : 192 Кбит/сек
Каналы : 2 канала
Расположение каналов : Front: L R
Частота : 48,0 КГц
Частота кадров : 31,250 кадров/сек (1536 SPF)
Битовая глубина : 16 бит
Метод сжатия : С потерями
Размер потока : 175 Мбайт (13%)
Выравнивание : Разделение по промежуткам
Продолжительность промежутка : 42 мс. (1,00 видеокадр)
Время предзагрузки промежутка : 500 мс.
ServiceKind/String : Complete Main
--Внимание!!! Присутствует реклама!!!--
Download / Скачать

Хотите скачать бесплатно? Зарегистрируйтесь на сайте (ссылка на регистрацию). Pirat.ca - самый быстрый торрент трекер в рунете!

Как скачивать  ·   Что такое торрент  ·   Рейтинг и ограничения

AlexDjas ®

Флибустьер

6303

Пост 05-Июн-2018 09:26 (спустя 2 минуты)

[Q] 

Долго думал стоит раздавать или нет. В иторе разместил для ознакомления. Качество не ахти, но ознакомиться можно

_________________
- Один терапевт - это 1024 гигапевта, или 1048576 мегапевтов!
[Профиль]  [ЛС] 

Gari4

Флибустьер

Пост 07-Июн-2018 17:56 (спустя 2 дня 8 часов)

[Q] 

За труды спасибо, но буду ждать качества...

_________________
РЕБЯТ!! Подпишитесь на канал! Вам все равно, а мне приятно))
https://www.youtube.com/channel/UCHdnAvKKhkxeJvg3DQ...ew_as=subscriber
[Профиль]  [ЛС] 

Pirat177

Флибустьер

Пост 11-Июн-2018 21:12 (спустя 4 дня)

[Q] 

Жду качества, судя по скринам смотреть -глаза ломать... На любителя
[Профиль]  [ЛС] 

Mirgilip

Штурман

Пост 14-Июн-2018 18:01 (спустя 2 дня 20 часов)

[Q] 

Спасибо ! Тем кому глаза ломать лень с телевизором в пол стены оно конечно ущербно. А мне на моем старом тринитрончике глянуть вечерком в самый раз.
[Профиль]  [ЛС] 

Су-34

Гроза морей

15249

Пост 28-Июн-2018 19:53 (спустя 14 дней)

[Q] 

А эти войны когда то закончатся??
[Профиль]  [ЛС] 

ciddharta

Штурман

Пост 30-Июн-2018 07:45 (спустя 1 день 11 часов)

[Q] 

827767А эти войны когда то закончатся??
нет не закончатся ! превратили что то в роде сериала, бесконечная франшиза с историями до и после первых 6 серий
[Профиль]  [ЛС] 

Мания величия

Морской Волк

Пост 06-Июл-2018 00:11 (спустя 5 дней)

[Q] 

за труд спс
ознакомились качество у кого??

_________________
[Профиль]  [ЛС] 

AlexDjas ®

Флибустьер

6303

Пост 06-Июл-2018 11:47 (спустя 11 часов)

[Q] 

828544за труд спс
ознакомились качество у кого??
пока ни у кого )))

_________________
- Один терапевт - это 1024 гигапевта, или 1048576 мегапевтов!
[Профиль]  [ЛС] 

exelero07

Гроза морей

Пост 20-Июл-2018 22:04 (спустя 14 дней)

[Q] 

неплохой экшн, куча героев, спецэффекты
[Профиль]  [ЛС] 

Lucid

Боцман

Пост 01-Авг-2018 05:41 (спустя 11 дней)

[Q] 

А кто-нибудь в курсе, когда ждать нормальное качество?
[Профиль]  [ЛС] 

Pravonn

Лоцман

Пост 31-Авг-2018 22:13 (спустя 30 дней)

[Q] 

Жаль что нет качества(
[Профиль]  [ЛС] 
Показать сообщения:    
Ответить на тему

Текущее время: Сегодня 22:20

Часовой пояс: GMT + 4



Вы не можете начинать темы
Вы не можете отвечать на сообщения
Вы не можете редактировать свои сообщения
Вы не можете удалять свои сообщения
Вы не можете голосовать в опросах
Вы не можете прикреплять файлы к сообщениям
Вы не можете скачивать файлы

Майнать ▼