Тихоокеанский рубеж 2 : Восстание / Pacific Rim 2 : Uprising (Стивен С. ДеНайт / Steven S. DeKnight) [2018 г., фантастика, приключения, BDRip, 1080p] Dub (iTunes) + MVO (HDrezka Studio) + Original (Eng) + Subs (Eng, Rus)

Ответить на тему
 
Автор
Сообщение

Пост 07-Июн-2018 20:47

[Q] 

tank69

Корсар

-Тихоокеанский рубеж 2 : Восстание / Pacific Rim 2 : Uprising-- Производство: США, Universal Studios
Год выпуска: 2018 г.
Жанр: фантастика, приключения
Продолжительность: 01:50:00
Мировая премьера: 21 марта 2018
Перевод 1: Профессиональный (полное дублирование) [iTunes]
Перевод 2: Профессиональный (многоголосый, закадровый) [HDrezka Studio]
Оригинальный аудиопоток: английский
Режиссёр: Стивен С. ДеНайт / Steven S. DeKnight-В ролях: Джон Бойега, Скотт Иствуд, Кэйли Спэни, Берн Горман, Чарли Дэй, Цзин Тянь, Макс Чжан, Адриа Архона, Ринко Кикути, Каран Брэр-Описание: Продолжение фильма о вторжении чудовищ Кайдзю на Землю и борьбе с ними с помощью гигантских человекоподобных роботов.
Команда пилотируемых роботов-защитников остановила вторжение гигантских инопланетных монстров. Великая битва за Тихоокеанский рубеж ознаменовала новую главу в истории человечества. Однако война только начинается…
Пришло время нового поколения отстаивать своё право на Землю.-
Качество видео: BDRip
Контейнер: MKV
Стандарт разрешения: 1080p
Видео кодек: MPEG4 AVC
Аудио кодек: AC3
Видео: AVC, 1920x800, 23.976 fps, 15500 Kbps
Аудио #1: русский, AC-3, 48.0 KHz, 6 ch, 384 Kbps
Аудио #2: русский, AC-3, 48.0 KHz, 2 ch, 192 Kbps
Аудио #3: английский, AC-3, 48.0 KHz, 6 ch, 448 Kbps
Cубтитры: русские, английские
Доп. информация о субтитрах: UTF-8
Общее
Уникальный идентификатор : 186902568239798012895892701780341707417 (0x8C9C2012B76A2D018A69231937BC5299)
Полное имя : C:\Users\vigor\Downloads\Pacific.Rim.Uprising.2018.BDRip.1080p.ExKinoRay.mkv
Формат : Matroska
Версия формата : Version 4 / Version 2
Размер файла : 12,8 Гбайт
Продолжительность : 1 ч. 50 м.
Общий поток : 16,5 Мбит/сек
Название фильма : Pacific Rim Uprising 2018 ExKinoRay
Дата кодирования : UTC 2018-06-07 06:21:31
Программа кодирования : mkvmerge v7.3.0 ('Nouages') 64bit built on Oct 22 2014 18:53:34
Библиотека кодирования : libebml v1.3.0 + libmatroska v1.4.1
Видео
Идентификатор : 1
Формат : AVC
Формат/Информация : Advanced Video Codec
Профиль формата : High@L4.1
Настройки формата : CABAC / 5 Ref Frames
Параметр CABAC формата : Да
Параметр RefFrames формата : 5 кадров
Идентификатор кодека : V_MPEG4/ISO/AVC
Продолжительность : 1 ч. 50 м.
Битрейт : 15,5 Мбит/сек
Ширина : 1920 пикселей
Высота : 800 пикселей
Соотношение сторон : 2,40:1
Режим частоты кадров : Постоянный
Частота кадров : 23,976 (24000/1001) кадра/сек
Цветовое пространство : YUV
Субдискретизация насыщенности : 4:2:0
Битовая глубина : 8 бит
Тип развёртки : Прогрессивная
Бит/(Пиксели*Кадры) : 0.421
Размер потока : 12,0 Гбайт (94%)
Библиотека кодирования : x264 core 148 r2665kMod a01e339
Настройки программы : cabac=1 / ref=5 / deblock=1:-3:-3 / analyse=0x3:0x133 / me=umh / subme=11 / psy=1 / fade_compensate=0.00 / psy_rd=1.05:0.00 / mixed_ref=1 / me_range=48 / chroma_me=1 / trellis=2 / 8x8dct=1 / cqm=0 / deadzone=21,11 / fast_pskip=0 / chroma_qp_offset=-2 / threads=24 / lookahead_threads=4 / sliced_threads=0 / nr=0 / decimate=0 / interlaced=0 / bluray_compat=0 / constrained_intra=0 / fgo=0 / bframes=8 / b_pyramid=2 / b_adapt=2 / b_bias=0 / direct=3 / weightb=1 / open_gop=0 / weightp=2 / keyint=240 / keyint_min=24 / scenecut=40 / intra_refresh=0 / rc=2pass / mbtree=0 / bitrate=15500 / ratetol=1.0 / qcomp=0.70 / qpmin=0 / qpmax=69 / qpstep=4 / cplxblur=20.0 / qblur=0.5 / ip_ratio=1.20 / pb_ratio=1.20 / aq=3:0.80
Язык : English
Default : Да
Forced : Нет
Аудио #1
Идентификатор : 2
Формат : AC-3
Формат/Информация : Audio Coding 3
Идентификатор кодека : A_AC3
Продолжительность : 1 ч. 50 м.
Вид битрейта : Постоянный
Битрейт : 384 Кбит/сек
Каналы : 6 каналов
Расположение каналов : Front: L C R, Side: L R, LFE
Частота : 48,0 КГц
Частота кадров : 31,250 кадров/сек (1536 SPF)
Битовая глубина : 16 бит
Метод сжатия : С потерями
Размер потока : 304 Мбайт (2%)
Заголовок : iTunes
Язык : Russian
ServiceKind/String : Complete Main
Default : Да
Forced : Да
Аудио #2
Идентификатор : 3
Формат : AC-3
Формат/Информация : Audio Coding 3
Идентификатор кодека : A_AC3
Продолжительность : 1 ч. 50 м.
Вид битрейта : Постоянный
Битрейт : 192 Кбит/сек
Каналы : 2 канала
Расположение каналов : Front: L R
Частота : 48,0 КГц
Частота кадров : 31,250 кадров/сек (1536 SPF)
Битовая глубина : 16 бит
Метод сжатия : С потерями
Размер потока : 152 Мбайт (1%)
Заголовок : HDRezka
Язык : Russian
ServiceKind/String : Complete Main
Default : Нет
Forced : Нет
Аудио #3
Идентификатор : 4
Формат : AC-3
Формат/Информация : Audio Coding 3
Идентификатор кодека : A_AC3
Продолжительность : 1 ч. 50 м.
Вид битрейта : Постоянный
Битрейт : 448 Кбит/сек
Каналы : 6 каналов
Расположение каналов : Front: L C R, Side: L R, LFE
Частота : 48,0 КГц
Частота кадров : 31,250 кадров/сек (1536 SPF)
Битовая глубина : 16 бит
Метод сжатия : С потерями
Размер потока : 355 Мбайт (3%)
Заголовок : Original
Язык : English
ServiceKind/String : Complete Main
Default : Нет
Forced : Нет
Текст #1
Идентификатор : 5
Формат : UTF-8
Идентификатор кодека : S_TEXT/UTF8
Идентификатор кодека/Информация : UTF-8 Plain Text
Продолжительность : 1 ч. 38 м.
Битрейт : 1 бит/сек
ElementCount : 25
Размер потока : 1,15 Кбайт (0%)
Заголовок : Forced
Язык : Russian
Default : Да
Forced : Да
Текст #2
Идентификатор : 6
Формат : UTF-8
Идентификатор кодека : S_TEXT/UTF8
Идентификатор кодека/Информация : UTF-8 Plain Text
Продолжительность : 1 ч. 40 м.
Битрейт : 104 бит/сек
ElementCount : 1191
Размер потока : 76,6 Кбайт (0%)
Заголовок : full
Язык : Russian
Default : Нет
Forced : Нет
Текст #3
Идентификатор : 7
Формат : UTF-8
Идентификатор кодека : S_TEXT/UTF8
Идентификатор кодека/Информация : UTF-8 Plain Text
Продолжительность : 1 ч. 40 м.
Битрейт : 59 бит/сек
ElementCount : 1161
Размер потока : 43,4 Кбайт (0%)
Заголовок : full
Язык : English
Default : Нет
Forced : Нет
Меню
00:00:00.000 : en:00:00:00.000
00:06:54.873 : en:00:06:54.873
00:13:05.368 : en:00:13:05.368
00:15:51.075 : en:00:15:51.075
00:20:36.360 : en:00:20:36.360
00:24:49.697 : en:00:24:49.697
00:31:08.241 : en:00:31:08.241
00:37:56.065 : en:00:37:56.065
00:43:37.949 : en:00:43:37.949
00:49:01.939 : en:00:49:01.939
00:53:40.926 : en:00:53:40.926
00:58:12.030 : en:00:58:12.030
01:04:45.006 : en:01:04:45.006
01:09:25.536 : en:01:09:25.536
01:14:36.722 : en:01:14:36.722
01:22:53.427 : en:01:22:53.427
01:29:02.546 : en:01:29:02.546
01:33:10.585 : en:01:33:10.585
01:38:07.381 : en:01:38:07.381
01:40:55.049 : en:01:40:55.049

!!БЕЗ РЕКЛАМЫ!!!
Download / Скачать

Хотите скачать бесплатно? Зарегистрируйтесь на сайте (ссылка на регистрацию). Pirat.ca - самый быстрый торрент трекер в рунете!

Как скачивать  ·   Что такое торрент  ·   Рейтинг и ограничения



Последний раз редактировалось: tank69 (2018-06-07 23:36), всего редактировалось 3 раз(а)

tank69 ®

Корсар

1064

Пост 07-Июн-2018 20:53 (спустя 6 минут)

[Q] 

Приятного просмотра в хорошем качестве картинки и звука!
Скачавшие - не уходите с раздачи плиз)
[Профиль]  [ЛС] 

gross1978

7647

Пост 07-Июн-2018 23:09 (спустя 2 часа 15 минут)

[Q] 

Спасибо за релиз.
на поглощение этого: Тихоокеанский рубеж 2 : Восстание / Pacific Rim 2 : Uprising (Стивен С. ДеНайт / Steven S. DeKnight) [2018 г., фантастика, приключения, HDTVRip, 1080p] DVO (HDrezka Studio)

_________________
Употребляйте правильно слова, и вы избавите мир от половины недоразумений (Р.Декарт).
Если у Вас есть переводы в авторском, которых нет в моих раздачах и желание ими поделиться, пишите, добавим:)
[Профиль]  [ЛС] 

Пост 07-Июн-2018 23:47 (спустя 38 минут)

Топик был перенесен из форума Зарубежное Кино (Трюм) в форум Новинки (BD/WEB-DL/HDTV/DVD)
gross1978
 

Pana

Корсар

Пост 08-Июн-2018 04:57 (спустя 5 часов)

[Q] 

Супер! Лови бочку
[Профиль]  [ЛС] 

SM 96

Легенда

Пост 08-Июн-2018 17:26 (спустя 12 часов)

[Q] 

Лови бочку
[Профиль]  [ЛС] 

vitaminka585

Лоцман

Пост 09-Июн-2018 19:14 (спустя 1 день 1 час)

[Q] 

Автору респект!!! Лови бочку Спасибо.
[Профиль]  [ЛС] 

Pirat177

Флибустьер

Пост 09-Июн-2018 23:42 (спустя 4 часа)

[Q] 

Спасибо, надеюсь без рекламы...
[Профиль]  [ЛС] 

Sector_X

311

Пост 10-Июн-2018 12:26 (спустя 12 часов)

[Q] 

Спасибо!!! Мне понравилось

_________________

[Профиль]  [ЛС] 

xgoliy

Морской Волк

Пост 14-Июн-2018 20:38 (спустя 4 дня)

[Q] 

Класс эффекты супер Лови бочку
[Профиль]  [ЛС] 

the_lame

Флибустьер

Пост 01-Июл-2018 19:31 (спустя 16 дней)

[Q] 

Фильм не о чём...
[Профиль]  [ЛС] 
Показать сообщения:    
Ответить на тему

Текущее время: Сегодня 12:56

Часовой пояс: GMT + 4



Вы не можете начинать темы
Вы не можете отвечать на сообщения
Вы не можете редактировать свои сообщения
Вы не можете удалять свои сообщения
Вы не можете голосовать в опросах
Вы не можете прикреплять файлы к сообщениям
Вы не можете скачивать файлы

Майнать ▼