Каникулы президента (Илья Шерстобитов) [2018 г., комедия, WEB-DL, 1080p]

Ответить на тему
 
Автор
Сообщение

Пост 12-Май-2018 21:26

[Q] 

moscowpan

Гроза морей

-Каникулы президента-- Производство: Россия, Андрианова Кино
Режиссёр: Илья Шерстобитов
Жанр: комедия
Год выпуска: 2018 г.
Продолжительность: 01:38:47
Российская премьера: 29 марта 2018
В ролях: Дмитрий Грачев, Анна Цуканова-Котт, Настасья Самбурская, Евгений Сидихин, Кирилл Васильев, Гоша Куценко, Дмитрий Дибров, Роза Хаируллина, Роман Попов, Владимир Носик-Описание: Устав от рутины, Президент решает отправиться на каникулы в гордом одиночестве, чтобы отдохнуть в Крыму, а заодно свободно пообщаться с народом. Понимая, что остаться инкогнито и улизнуть от заботливых коллег будет сложно, он прибегает к услугам гримера. Но его новый облик точь-в-точь совпадает с наружностью Валерия из N-ска, который скрывается от коллекторов по путевке матери в крымском санатории…-
Качество видео: WEB-DL
Контейнер: MKV
Стандарт разрешения: 1080p
Видео кодек: MPEG4 AVC
Аудио кодек: AC3
Видео: MPEG-4 AVC, 4538 Кбит/с, 1908x796
Аудио: AC3, 6 ch, 384 Кбит/с
Cубтитры: отсутствуют
Общее
Уникальный идентификатор : 192338379241427051854829749426723535816 (0x90B3063F506C2BD19AA939238CE8BBC8)
Полное имя : D:\Фильмы\KANIKULY_PREZIDENTA_WEB_DL 1080p.mkv
Формат : Matroska
Версия формата : Version 2
Размер файла : 3,40 Гбайт
Продолжительность : 1 ч. 38 м.
Общий поток : 4924 Кбит/сек
Дата кодирования : UTC 2018-04-29 18:34:45
Программа кодирования : mkvmerge v8.3.0 ('Over the Horizon') 64bit
Библиотека кодирования : libebml v1.3.1 + libmatroska v1.4.2
Видео
Идентификатор : 1
Формат : AVC
Формат/Информация : Advanced Video Codec
Профиль формата : [email protected]
Настройки формата : CABAC / 5 Ref Frames
Параметр CABAC формата : Да
Параметр RefFrames формата : 5 кадров
Параметр GOP формата : N=1
Идентификатор кодека : V_MPEG4/ISO/AVC
Продолжительность : 1 ч. 38 м.
Битрейт : 4538 Кбит/сек
Ширина : 1908 пикселей
Высота : 796 пикселей
Соотношение сторон : 2,40:1
Режим частоты кадров : Постоянный
Частота кадров : 23,976 (24000/1001) кадра/сек
Цветовое пространство : YUV
Субдискретизация насыщенности : 4:2:0
Битовая глубина : 8 бит
Тип развёртки : Прогрессивная
Бит/(Пиксели*Кадры) : 0.125
Размер потока : 3,13 Гбайт (92%)
Язык : English
Default : Да
Forced : Нет
Цветовой диапазон : Limited
Основные цвета : BT.709
Характеристики трансфера : BT.709
Коэффициенты матрицы : BT.709
Аудио
Идентификатор : 2
Формат : AC-3
Формат/Информация : Audio Coding 3
Идентификатор кодека : A_AC3
Продолжительность : 1 ч. 38 м.
Вид битрейта : Постоянный
Битрейт : 384 Кбит/сек
Каналы : 6 каналов
Расположение каналов : Front: L C R, Side: L R, LFE
Частота : 48,0 КГц
Частота кадров : 31,250 кадров/сек (1536 SPF)
Битовая глубина : 16 бит
Метод сжатия : С потерями
Размер потока : 271 Мбайт (8%)
Язык : Russian
ServiceKind/String : Complete Main
Default : Да
Forced : Нет
Download / Скачать

Хотите скачать бесплатно? Зарегистрируйтесь на сайте (ссылка на регистрацию). Pirat.ca - самый быстрый торрент трекер в рунете!

Как скачивать  ·   Что такое торрент  ·   Рейтинг и ограничения



Последний раз редактировалось: moscowpan (2018-05-13 12:17), всего редактировалось 1 раз

Андря

8644

Пост 13-Май-2018 09:34 (спустя 12 часов)

[Q] 

необходимо добавить сэмпл

_________________
Като Тешекика
[Профиль]  [ЛС] 

moscowpan ®

Гроза морей

4441

Пост 13-Май-2018 12:19 (спустя 2 часа 45 минут)

[Q] 

825340необходимо добавить сэмпл
добавил. Исправил

_________________
[Профиль]  [ЛС] 

Ruslan78

Штурман

Пост 14-Май-2018 02:26 (спустя 14 часов)

[Q] 

Не стал смотреть фильм до конца, такого г..на давненько не смотрел!
Показана какая то выдуманная Россия, в больнице врачи жрут, ФСОшники - вообще как выжили то до 18 лет...
Это не комедия, а политическая фигня. Трафик потрачен зря!
[Профиль]  [ЛС] 

grosboy

Гроза морей

Пост 16-Май-2018 00:55 (спустя 1 день 22 часа)

[Q] 

Нормальный фильм. Не комедия, но познавательный. На раз глянуть заполнить вечерок вполне сойдёт.

_________________
Щастье есть - его не может не быть...
[Профиль]  [ЛС] 

RomanDV

Лоцман

Пост 17-Май-2018 08:19 (спустя 1 день 7 часов)

[Q] 

Посыл фильма: Царь хороший, бояре и народ плохие.
[Профиль]  [ЛС] 

Ruslan78

Штурман

Пост 05-Июн-2018 20:48 (спустя 19 дней)

[Q] 

825643Нормальный фильм. Не комедия, но познавательный. На раз глянуть заполнить вечерок вполне сойдёт.
Это как раз типа "комедия"!
Можно узнать что именно вы нашли в этом фильме познавательного?
Это "кине" не имеет ничего общего с познавательными фильмами, так как в это "кине" отражен взгляд очень именитого режиссера, который оставил огромнейший вклад в кинематограф! aa
[Профиль]  [ЛС] 

xgoliy

Морской Волк

Пост 14-Июн-2018 20:42 (спустя 8 дней)

[Q] 

Не понравился, скучно и нудно Лови бочку Трафик потрачен зря!
[Профиль]  [ЛС] 
Показать сообщения:    
Ответить на тему

Текущее время: Сегодня 10:08

Часовой пояс: GMT + 4



Вы не можете начинать темы
Вы не можете отвечать на сообщения
Вы не можете редактировать свои сообщения
Вы не можете удалять свои сообщения
Вы не можете голосовать в опросах
Вы не можете прикреплять файлы к сообщениям
Вы не можете скачивать файлы

Майнать ▼