Книга Генри / The Book of Henry (Колин Треворроу / Colin Trevorrow) [2017, триллер, драма, криминал, BDRip] Дубляж

Ответить на тему
 
Автор
Сообщение

Пост 08-Июн-2018 19:56

[Q] 

Су-34

Гроза морей

Книга Генри / The Book of Henry «Никогда не оставляйте дела незавершенными»-
Год выпуска: 2017
Страна: США
Жанр: триллер, драма, криминал
Продолжительность: 01:45:08
Перевод: Дубляж
Субтитры: Нет- Режиссер: Колин Треворроу / Colin Trevorrow- В ролях:
-Наоми Уоттс (Susan Carpenter), Джейден Либерер (Henry Carpenter), Джейкоб Тремблей (Peter Carpenter), Сара Силверман (Sheila), Дин Норрис (Glenn Sickleman), Ли Пейс (Dr. David Daniels), Мэдди Зиглер (Christina), Тоня Пинкинс (Principal Wilder), Бобби Мойнахан (John), Джеральдин Хьюз (Mrs. Evans), Максвелл Симкинс (Tommy), Джексон Николл (Morris)- Описание:
11-летий Генри – гениальный мальчик, живущий в обычном американском пригороде. Он не по годам рассудителен, всегда заступается за младшего брата, ведет финансы своей матери, однако даже с его умением просчитывать любую ситуацию на несколько ходов вперед мальчишке удается далеко не все – например, он ничем не может помочь соседской девочке-сверстнице, с которой жестоко обращается ее отчим-полицейский. Звонки в службу опеки, жалобы в полицию и разговоры со школьными учителями ни к чему не приводят, и тогда Генри решается на отчаянные шаги, но внезапно открывшаяся болезнь не позволяет мальчику самому воплотить задумку в жизнь. Генри передает матери свои записи, где подробно описана операция, которая освободит соседку от угнетений тирана…-Семпл: http://sendfile.su/1421146
https://www.imdb.com/title/tt4572792/
https://www.kinopoisk.ru/film/kniga-genri-2017-921610/- Качество: BDRip
Формат: AVI
Видео кодек: XviD
Аудио кодек: AC3
Видео: XviD, 704x352 (2.000), 1531 kbps, 23,976 fps, 0,258 bpp
Аудио №1: AC3 / 2.0 / 48 kHz / 192 kbps /
Аудио №2: AC3 / 2.0 / 48 kHz / 256 kbps /-
General
Complete name : D:\Torrents\The.Book.Of.Henry.2017.BDRip.1.46Gb.SDI.MegaPeer.avi
Format : AVI
Format/Info : Audio Video Interleave
File size : 1.46 GiB
Duration : 1 h 45 min
Overall bit rate : 1 994 kb/s
Writing application : VirtualDubMod 1.5.10.2 (build 2540/release)
Writing library : VirtualDubMod build 2540/release
Video
ID : 0
Format : MPEG-4 Visual
Format profile : Advanced Simple@L5
Format settings, BVOP : 1
Format settings, QPel : No
Format settings, GMC : No warppoints
Format settings, Matrix : Custom
Codec ID : XVID
Codec ID/Hint : XviD
Duration : 1 h 45 min
Bit rate : 1 532 kb/s
Width : 704 pixels
Height : 352 pixels
Display aspect ratio : 2.000
Frame rate : 23.976 (24000/1001) FPS
Color space : YUV
Chroma subsampling : 4:2:0
Bit depth : 8 bits
Scan type : Progressive
Compression mode : Lossy
Bits/(Pixel*Frame) : 0.258
Stream size : 1.13 GiB (77%)
Writing library : XviD 73
Audio #1
ID : 1
Format : AC-3
Format/Info : Audio Coding 3
Mode extension : CM (complete main)
Format settings, Endianness : Big
Codec ID : 2000
Duration : 1 h 45 min
Bit rate mode : Constant
Bit rate : 192 kb/s
Channel(s) : 2 channels
Channel positions : Front: L R
Sampling rate : 48.0 kHz
Frame rate : 31.250 FPS (1536 spf)
Compression mode : Lossy
Stream size : 144 MiB (10%)
Alignment : Split accross interleaves
Interleave, duration : 42 ms (1.00 video frame)
Interleave, preload duration : 500 ms
Audio #2
ID : 2
Format : AC-3
Format/Info : Audio Coding 3
Mode extension : CM (complete main)
Format settings, Endianness : Big
Codec ID : 2000
Duration : 1 h 45 min
Bit rate mode : Constant
Bit rate : 256 kb/s
Channel(s) : 2 channels
Channel positions : Front: L R
Sampling rate : 48.0 kHz
Frame rate : 31.250 FPS (1536 spf)
Compression mode : Lossy
Stream size : 193 MiB (13%)
Alignment : Split accross interleaves
Interleave, duration : 42 ms (1.00 video frame)
Interleave, preload duration : 500 ms
Download / Скачать

Хотите скачать бесплатно? Зарегистрируйтесь на сайте (ссылка на регистрацию). Pirat.ca - самый быстрый торрент трекер в рунете!

Как скачивать  ·   Что такое торрент  ·   Рейтинг и ограничения



Последний раз редактировалось: Су-34 (2018-06-08 21:39), всего редактировалось 1 раз

Кристина119

Гроза морей

Пост 09-Июн-2018 20:45 (спустя 1 день)

[Q] 

Спасибо, забираю Лови бочку
[Профиль]  [ЛС] 

gosha766

Шкипер

Пост 15-Июн-2018 07:29 (спустя 5 дней)

[Q] 

Спасибо посмотрим.
[Профиль]  [ЛС] 

Mihail_Ko

Лоцман

Пост 16-Июн-2018 12:44 (спустя 1 день 5 часов)

[Q] 

Хороший фильм! Хорошая игра актеров! Фильм выделяется из общей массы,
предлагаемой к просмотру. Спасибо раздающему! Лови бочку
[Профиль]  [ЛС] 

mechlek

Морской Волк

Пост 16-Июн-2018 17:23 (спустя 4 часа)

[Q] 

Мне понравилось Раздающему спасибо.
[Профиль]  [ЛС] 
Показать сообщения:    
Ответить на тему

Текущее время: Сегодня 12:56

Часовой пояс: GMT + 4



Вы не можете начинать темы
Вы не можете отвечать на сообщения
Вы не можете редактировать свои сообщения
Вы не можете удалять свои сообщения
Вы не можете голосовать в опросах
Вы не можете прикреплять файлы к сообщениям
Вы не можете скачивать файлы

Майнать ▼