Zомбоящик (Константин Смирнов) [2018 г., Комедия, WEB-DL]

Ответить на тему
 
Автор
Сообщение

Пост 08-Июн-2018 13:55

[Q] 

AlexDjas

Флибустьер

--Zомбоящик-- Производство: Россия / Comedy Club Production, ТНТ
Режиссёр: Константин Смирнов
Жанр: Комедия
Год выпуска: 2018 г.
Продолжительность: 00:59:19
Российская премьера: 25 января 2018--В ролях: Гарик Харламов, Гарик Мартиросян, Тимур Батрутдинов, Александр Ревва, Павел Воля, Екатерина Варнава, Андрей Скороход, Роман Юнусов, Ольга Бузова, Анна Хилькевич--Описание: Во времена Шекспира весь мир был театром, в наши же дни его захватил зомбоящик. 30 звезд ТНТ. Все жанры: драма, комедия, боевик, триллер, научная фантастика, байопик, эротика и экспериментальное кино. От бессмысленного и беспощадного стеба не скроется никто: ни футболисты, ни геи, ни чиновники, ни священники, ни расисты, ни онанисты! Герои «Zомбоящика» интригуют, дразнят, издеваются и смеются вместе со зрителями, доказывая, что вся наша жизнь и есть «Zомбоящик».--
Качество видео: WEB-DL
Контейнер: MKV
Видео кодек: MPEG4 AVC
Аудио кодек: AC3
Видео: H.264/AVC, 1920x1080, ~5154 Kbps, 25 fps
Аудио: 48 kHz, AC3 Dolby Digital, 3/2 (L,C,R,l,r) + LFE ch, ~384 kbps
Cубтитры: отсутствуют
Общее
Уникальный идентификатор : 208920968435508041190011683488670882863 (0x9D2CB70479974D2BB65A85D4C7CF1C2F)
Полное имя : D:\торрент\Zомбоящик_2018_WEB-DL_1080p[pirat.ca].mkv
Формат : Matroska
Версия формата : Version 2
Размер файла : 2,30 Гбайт
Продолжительность : 59 м. 19 с.
Общий поток : 5540 Кбит/сек
Дата кодирования : UTC 2018-06-06 19:10:02
Программа кодирования : mkvmerge v8.3.0 ('Over the Horizon') 64bit
Библиотека кодирования : libebml v1.3.1 + libmatroska v1.4.2
Видео
Идентификатор : 1
Формат : AVC
Формат/Информация : Advanced Video Codec
Профиль формата : [email protected]
Настройки формата : CABAC / 4 Ref Frames
Параметр CABAC формата : Да
Параметр RefFrames формата : 4 кадра
Идентификатор кодека : V_MPEG4/ISO/AVC
Продолжительность : 59 м. 19 с.
Битрейт : 5154 Кбит/сек
Ширина : 1920 пикселей
Высота : 1080 пикселей
Соотношение сторон : 16:9
Режим частоты кадров : Постоянный
Частота кадров : 25,000 кадров/сек
Цветовое пространство : YUV
Субдискретизация насыщенности : 4:2:0
Битовая глубина : 8 бит
Тип развёртки : Прогрессивная
Бит/(Пиксели*Кадры) : 0.099
Размер потока : 2,14 Гбайт (93%)
Язык : English
Default : Да
Forced : Нет
Цветовой диапазон : Limited
Основные цвета : BT.709
Характеристики трансфера : BT.709
Коэффициенты матрицы : BT.709
Аудио
Идентификатор : 2
Формат : AC-3
Формат/Информация : Audio Coding 3
Идентификатор кодека : A_AC3
Продолжительность : 59 м. 19 с.
Вид битрейта : Постоянный
Битрейт : 384 Кбит/сек
Каналы : 6 каналов
Расположение каналов : Front: L C R, Side: L R, LFE
Частота : 48,0 КГц
Частота кадров : 31,250 кадров/сек (1536 SPF)
Битовая глубина : 16 бит
Метод сжатия : С потерями
Размер потока : 163 Мбайт (7%)
Язык : Russian
ServiceKind/String : Complete Main
Default : Да
Forced : Нет
Download / Скачать

Хотите скачать бесплатно? Зарегистрируйтесь на сайте (ссылка на регистрацию). Pirat.ca - самый быстрый торрент трекер в рунете!

Как скачивать  ·   Что такое торрент  ·   Рейтинг и ограничения

fff777

Штурман

Пост 11-Июн-2018 20:44 (спустя 3 дня)

[Q] 

Камеди клаб превзошли сами себя по количеству бреда на минуту в этом даже не знаю как назвать . Комедией назвать это можно с очень большой натяжкой .
[Профиль]  [ЛС] 

gosha766

Шкипер

Пост 15-Июн-2018 08:04 (спустя 3 дня)

[Q] 

Благодарю.
Посмотрим.
[Профиль]  [ЛС] 

redfield

Морской Волк

Пост 18-Июл-2018 20:29 (спустя 1 месяц 3 дня)

[Q] 

Жаль нельзя ругаться, а то покрыл бы фильм матом....
[Профиль]  [ЛС] 

lexaspirit

Пост 16-Авг-2018 23:13 (спустя 29 дней)

[Q] 

Полный бред. Ничего смешного в фильме, если это можно назвать фильмом, нет. Жалко тех, кто ходил в кино и потратил на это деньги

_________________
-------------------- ----------------------
[Профиль]  [ЛС] 
Показать сообщения:    
Ответить на тему

Текущее время: Сегодня 17:38

Часовой пояс: GMT + 4



Вы не можете начинать темы
Вы не можете отвечать на сообщения
Вы не можете редактировать свои сообщения
Вы не можете удалять свои сообщения
Вы не можете голосовать в опросах
Вы не можете прикреплять файлы к сообщениям
Вы не можете скачивать файлы

Майнать ▼