Сотня / The 100 / Сезоны: 1-4 / Серии: 1-58 из 58 (Дин Уайт / Dean White) [2014-2017, США, фантастика, детектив, BDRip] MVO (LostFilm)

Ответить на тему
 
Автор
Сообщение

Пост 16-Дек-2017 23:29

[Q] 

kugesan

-Сотня / The 100 «Survival isn't who you are. It's who you become»-- Производство: США
Жанр: фантастика, драма, детектив, ...
Год выпуска: 2014-2017
Продолжительность: ~ 00:42:00 мин серия-Премьера (мир): 19 марта 2014, ...
Премьера (РФ): 18 января 2015-Озвучка: Студия
Перевод: Многоголосый закадровый, профессиональный-Режиссер: Дин Уайт / Dean White, Эд Фрэйман / Ed Fraiman, Майрзи Алмас / Mairzee Almas, ...-В ролях: Элайза Тейлор, Мари Авгеропулос, Боб Морли, Генри Йен Кьюсик, Исайя Вашингтон, Пейдж Турко, Рики Уиттл, Ричард Хэрмон, Линдси Морган, Девон Бостик ...-Описание:
События в сериале начинают разворачиваться по прошествии девяносто семи лет после того как всю цивилизацию уничтожила страшная атомная война. Высоко в космосе на орбите Земли летает большой космический корабль, именно здесь находятся те, кто выжил после страшной катастрофы. Они единственные кто пережил этот ужасный катаклизм который устроило человечество. Именно с этого последнего пристанища людей на Землю отправляют космический челнок на котором находятся сто малолетних преступников…- -Качество видео: BDRip (исх. BDRemux-HDClub)
Контейнер: AVI
Видео кодек: XviD
Аудио кодек: AC3
Видео: XviD, 720x400 (16:9), 23,976 fps, ~1800 kbps: 0.26 Бит/Пиксели
Аудио Rus: AC3, 48 kHz, 6 ch, 384 kbps, CBR |LostFilm|
Cубтитры: отсутствуют
- -
Дорожка 1 получена путем наложения выделенных голосов LostFilm на центральный канал оригинала
Работа со звуком: serial_M
-
Общее
Формат : AVI
Формат/Информация : Audio Video Interleave
Размер файла : 647 Мбайт
Продолжительность : 41 м.
Общий поток : 2193 Кбит/сек
Программа кодирования : VirtualDubMod 1.5.10.3 | www.virtualdub-fr.org || (build 2550/release)
Библиотека кодирования : VirtualDubMod build 2550/release
Видео
Идентификатор : 0
Формат : MPEG-4 Visual
Профиль формата : Advanced [email protected]
Параметр BVOP формата : 2
Параметр QPel формата : Нет
Параметр GMC формата : Без точки перехода
Параметр матрицы формата : Выборочная
Идентификатор кодека : XVID
Идентификатор кодека/Подсказка : XviD
Продолжительность : 41 м.
Битрейт : 1800 Кбит/сек
Ширина : 720 пикселей
Высота : 400 пикселей
Соотношение сторон : 16:9
Частота кадров : 23,976 (23976/1000) кадра/сек
Цветовое пространство : YUV
Субдискретизация насыщенности : 4:2:0
Битовая глубина : 8 бит
Тип развёртки : Прогрессивная
Метод сжатия : С потерями
Бит/(Пиксели*Кадры) : 0.261
Размер потока : 531 Мбайт (82%)
Библиотека кодирования : XviD 73
Аудио
Идентификатор : 1
Формат : AC-3
Формат/Информация : Audio Coding 3
Расширение режима : CM (complete main)
Параметр Endianness формата : Big
Идентификатор кодека : 2000
Продолжительность : 41 м.
Вид битрейта : Постоянный
Битрейт : 384 Кбит/сек
Каналы : 6 каналов
Расположение каналов : Front: L C R, Side: L R, LFE
Частота : 48,0 КГц
Частота кадров : 31,250 кадров/сек (1536 spf)
Метод сжатия : С потерями
Размер потока : 113 Мбайт (18%)
Выравнивание : Разделение по промежуткам
Продолжительность промежутка : 42 мс. (1,00 видеокадр)
Время предзагрузки промежутка : 500 мс.
-
Скриншоты:
-
Раздача ведётся путём добавления новых серий; при каждом добавлении создаётся новый торрент.
Чтобы начать докачку новой серии, пользователям необходимо сделать следующее:
1. остановить скачивание,
2. удалить старый торрент у себя из клиента (старые серии удалять не надо),
3. скачать новый торрент и запустить его у себя в клиенте вместо старого, при этом указать клиенту путь в старую папку, куда и должно происходить скачивание новых серий.
Ваш клиент при этом должен произвести хеширование (проверку) старой папки (если не производит сам - помогите ему сделать это), и будет докачивать только те серии которых у вас ещё нет. Старые серии при этом не удаляются, а продолжают раздаваться!
Eсли вы уже удалили старые серии, то предотвратить повторную закачку старых серий можно, отжав галочку в соответствующих местах при запуске нового торрента. По возможности, желательно не удалять старые серии как можно дольше, чтобы релизёр не столько продолжал раздавать старые серии, а смог сконцентрироваться на новых.
Совет для тех, кто не хочет ждать перехеширования:
Создайте ещё одну папку рядом с папкой сериала (рядом, а не в ней!!!). Каждую новую серию после удачной загрузки копируйте в новую папку так чтобы ваша основная папка всегда была пуста. Когда ваш новый торрент предложит вам закачать все файлы, выберете только последнюю. Для сидирования же укажите адрес новой папки.
Как закачать отдельный файл из торрента или докачать ранее пропущенные файлы торрента!
-
1. Открыть торрент
2. Снять галки с тех файлов торрента, которые мы не хотим закачивать. Оставляем только на нужных нам файлах (файле).
3. Нажать О.К.
В клиенте utorrent
Инструкция
1) Открыть торрент

2) Снять галки с тех файлов торрента, которые мы не хотим закачивать:
* либо вручную, снимая с каждого файла галку( скрин №1)
* либо, нажав кнопку "Снять метки (Select None)", сняв сразу со всех файлов(скрин №2)
№1

№2

Оставляем только на нужных нам файлах (файле).

3)Нажать О.К
-Приятного просмотра!!!-
Download / Скачать

Хотите скачать бесплатно? Зарегистрируйтесь на сайте (ссылка на регистрацию). Pirat.ca - самый быстрый торрент трекер в рунете!

Как скачивать  ·   Что такое торрент  ·   Рейтинг и ограничения

Анна Браун

Морской Волк

Пост 15-Июн-2018 13:41 (спустя 5 месяцев 29 дней)

[Q] 

Спасибо за раздачу. Люблю такие фильмы Вы лучшие!
[Профиль]  [ЛС] 
Показать сообщения:    
Ответить на тему

Текущее время: Сегодня 23:01

Часовой пояс: GMT + 4



Вы не можете начинать темы
Вы не можете отвечать на сообщения
Вы не можете редактировать свои сообщения
Вы не можете удалять свои сообщения
Вы не можете голосовать в опросах
Вы не можете прикреплять файлы к сообщениям
Вы не можете скачивать файлы

Майнать ▼