Смертельное оружие / Lethal Weapon / Сезон: 1 / Серии: 1-18 (18) (МакДжи / McG, Стив Бойум / Steve Boyum, ...) [2016 г., боевик, триллер, драма, WEB-DL, 720p] MVO (LostFilm) + Original (Eng) + Sub (Eng)

Ответить на тему
 
Автор
Сообщение

Пост 27-Мар-2017 16:33

[Q] 

TERMOS

Легенда

-Смертельное оружие / Lethal Weapon
«Good Cop. Crazy Good Cop.»
(1 сезон)
-- Производство: США
Жанр: боевик, триллер, драма
Год выпуска: 2016 г.
Продолжительность: 18x ~00:45:00
Перевод: Профессиональный (многоголосый, закадровый) [LostFilm]
Оригинальный аудиопоток: английский
Режиссер: МакДжи / McG, Стив Бойум / Steve Boyum, ...-В ролях: Клейн Кроуфорд, Дэймон Уайанс, Джордана Брюстер, Киша Шарп, Кевин Рам, Джонатан Фернандес, Чандлер Кинни, Данте Браун, , Флориана Лима-Описание: Полицейский Мартин Риггз (Клейн Кроуфорд) работает в Техасе, он весел, бесшабашен, счастливо женат и ждет рождения сына. Но по дороге в роддом его жена гибнет в ДТП, и Риггз превращается в сломленного человека, который искренне желает умереть, поскольку жить ему теперь незачем. Он переезжает в Лос-Анджелес, поступает в тамошнюю полицию и получает в напарники 50-летнего Роджера Мерту. Тот только что перенес инфаркт, старается соблюдать режим и не подвергать сердце избыточным нагрузкам.
    Но с Риггзом этот номер не пройдет. Уже с первых минут знакомства он испытывает нового напарника — входит в банк с грабителями и убивает их всех. Дальше — больше. Погони, перестрелки следуют одна за другой, напарники присматриваются друг к другу и наконец становятся друзьями — и теперь им можно открыть друг другу свои тайные переживания и научиться доверию.
- - -Качество видео: WEB-DL
Контейнер: MKV
Стандарт разрешения: 720p
Видео кодек: H.264/AVC
Аудио кодек: AC3
Видео: 1280x718 at 23.976 fps, MPEG-4 AVC, ~4000 kbps avg
Аудио: Russian: 48 kHz, AC3, 3/2 (L,C,R,l,r) + LFE ch, ~384.00 kbps avg |Многоголосый закадровый, LostFilm|
Аудио #2: English: 48 kHz, AC3, 3/2 (L,C,R,l,r) + LFE ch, ~384.00 kbps avg
Cубтитры: английские
Код:
Format                      : Matroska
Format version              : Version 4 / Version 2
File size                   : 1.57 GiB
Duration                    : 46mn 58s
Overall bit rate            : 4 792 Kbps
Movie name                  : Lethal Weapon 1x01 (2016) - Release kmarats for HDCLUB
Encoded date                : UTC 2016-10-07 12:34:31
Writing application         : mkvmerge v9.4.2 ('So High') 64bit
Writing library             : libebml v1.3.4 + libmatroska v1.4.5
DURATION                    : 00:46:58.048000000
NUMBER_OF_FRAMES            : 88064
NUMBER_OF_BYTES             : 135266304
_STATISTICS_WRITING_APP     : mkvmerge v9.4.2 ('So High') 64bit
_STATISTICS_WRITING_DATE_UT : 2016-10-07 12:34:31
_STATISTICS_TAGS            : BPS DURATION NUMBER_OF_FRAMES NUMBER_OF_BYTES
Video
ID                          : 1
Format                      : AVC
Format/Info                 : Advanced Video Codec
Format profile              : [email protected]
Format settings, CABAC      : No
Format settings, ReFrames   : 2 frames
Codec ID                    : V_MPEG4/ISO/AVC
Duration                    : 46mn 58s
Bit rate                    : 3 929 Kbps
Width                       : 1 280 pixels
Height                      : 718 pixels
Display aspect ratio        : 16:9
Frame rate mode             : Constant
Frame rate                  : 23.976 fps
Color space                 : YUV
Chroma subsampling          : 4:2:0
Bit depth                   : 8 bits
Scan type                   : Progressive
Bits/(Pixel*Frame)          : 0.178
Stream size                 : 1.29 GiB (82%)
Title                       : Lethal Weapon 1x01 (2016) - Release kmarats for HDCLUB
Language                    : English
Default                     : Yes
Forced                      : No
Color primaries             : BT.709
Transfer characteristics    : BT.709
Matrix coefficients         : BT.709
Color range                 : Limited
Audio #1
ID                          : 2
Format                      : AC-3
Format/Info                 : Audio Coding 3
Mode extension              : CM (complete main)
Format settings, Endianness : Big
Codec ID                    : A_AC3
Duration                    : 46mn 58s
Bit rate mode               : Constant
Bit rate                    : 384 Kbps
Channel(s)                  : 6 channels
Channel positions           : Front: L C R, Side: L R, LFE
Sampling rate               : 48.0 KHz
Bit depth                   : 16 bits
Compression mode            : Lossy
Stream size                 : 129 MiB (8%)
Title                       : LostFilm
Language                    : Russian
Default                     : Yes
Forced                      : No
Audio #2
ID                          : 3
Format                      : AC-3
Format/Info                 : Audio Coding 3
Mode extension              : CM (complete main)
Format settings, Endianness : Big
Codec ID                    : A_AC3
Duration                    : 46mn 58s
Bit rate mode               : Constant
Bit rate                    : 384 Kbps
Channel(s)                  : 6 channels
Channel positions           : Front: L C R, Side: L R, LFE
Sampling rate               : 48.0 KHz
Bit depth                   : 16 bits
Compression mode            : Lossy
Stream size                 : 129 MiB (8%)
Title                       : English
Language                    : English
Default                     : No
Forced                      : No
Text
ID                          : 4
Format                      : UTF-8
Codec ID                    : S_TEXT/UTF8
Codec ID/Info               : UTF-8 Plain Text
Title                       : eng-sub
Language                    : English
Default                     : No
Forced                      : No
Download / Скачать

Хотите скачать бесплатно? Зарегистрируйтесь на сайте (ссылка на регистрацию). Pirat.ca - самый быстрый торрент трекер в рунете!

Как скачивать  ·   Что такое торрент  ·   Рейтинг и ограничения

TERMOS ®

Легенда

19926

Пост 27-Мар-2017 16:35 (спустя 2 минуты)

[Q] 

Да, да. Это ремейк той самой квадрологии. И даже неплохой. Рекомендую...

_________________
[Профиль]  [ЛС] 

raul kurochka

Флибустьер

Пост 28-Мар-2017 01:54 (спустя 9 часов)

[Q] 

Видал рекламу в конце какого-то сериала. Должно быть угарно. Одно смущает - Мерто лет на 20-25 младше. Как же тогда фирменное:"I`m too old for that shit"...!?
Лови бочку

_________________
...ЧО ТАКОЙ СЕРЬЕЗНЫЙ???
[Профиль]  [ЛС] 

isaenko1957

Морской Волк

Пост 16-Май-2017 20:24 (спустя 1 месяц 19 дней)

[Q] 

а когда второй сезон ?

_________________
Мы не настолько богаты что бы покупать дешевые вещи !
[Профиль]  [ЛС] 

Don Willy

Шкипер

Пост 06-Ноя-2017 20:36 (спустя 5 месяцев 21 день)

[Q] 

Второй сезон уже вышел наполовину, а на трекере всё нет(
[Профиль]  [ЛС] 

Legion18rus

Лоцман

Пост 14-Фев-2018 19:59 (спустя 3 месяца 7 дней)

[Q] 

сериал офигенный, особенно к концу сезона! С нетерпением жду второй сезон.
[Профиль]  [ЛС] 

Анна Браун

Морской Волк

Пост 15-Июн-2018 14:07 (спустя 4 месяца)

[Q] 

Хочу посмотреть. Спасибо за раздачу. Автору респект!!!
[Профиль]  [ЛС] 
Показать сообщения:    
Ответить на тему

Текущее время: Сегодня 20:50

Часовой пояс: GMT + 4



Вы не можете начинать темы
Вы не можете отвечать на сообщения
Вы не можете редактировать свои сообщения
Вы не можете удалять свои сообщения
Вы не можете голосовать в опросах
Вы не можете прикреплять файлы к сообщениям
Вы не можете скачивать файлы

Майнать ▼