Тайны города ЭН / Серии: 1-8 из 8 (Николай Хомерики) [2015,детектив, драма, SATRip-AVC]

Ответить на тему
 
Автор
Сообщение

Пост 28-Июн-2018 15:58

[Q] 

aleksan555

-Тайны города ЭН -- Год выпуска: 2015
Страна: Россия | Марс Медиа
Жанр: детектив, драма
Продолжительность: ~ 00:50:00
Субтитры:нет
Режиссёр:Николай Хомерики-В ролях:Светлана Колпакова, Дмитрий Поднозов, Кирилл Гребенщиков, Наталья Рогожкина, Анна Чиповская, Ольга Демидова, Наталья Батрак, Сергей Удовик, Игорь Хрипунов, Стася Хомерики-Гранковская, Владимир Селезнёв , Станислав Рядинский, Александр Васильев, Анатолий Друзенко, Павел Григорьев, Борис Войцеховский, Марина Куделинская, Никита Васильев-Описание:При въезде в маленький тихий городок находят тело подростка Алика. Неподалеку в овраге – машину ехавшего из Москвы незнакомца Шацкого. Первоначальная версия ДТП отметается, когда у погибшего в легких обнаруживают воду. Если его убили, то кто? Молодой следователь Анна подозревает чужака, ее начальник Михаил Сергеевич считает, что убийца – кто-то из своих. В ходе расследования, к которому, желая себя оправдать, подключается Шацкий, выясняется, что у многих в этом городке были мотивы для убийства.- -Качество: SATRip-AVC
Формат: MKV
Видео кодек: H.264
Аудио кодек:AC3
Видео: MPEG4 Video (H264), 720x400, 25fps,1800 Kbps,bit/pixel 0.250
Аудио:AC3 48000Hz, stereo, 256 kbps,2 ch-
Код:
Общее
Уникальный идентификатор                 : 214683725812254315166780780221162046009 (0xA18294E47CD2C3639075E6DBC9BBC239)
Полное имя                               : E:\Тайны города Эн\01 серия_Тайны города Эн_rip by_Aleksan55.mkv
Формат                                   : Matroska
Версия формата                           : Version 2
Размер файла                             : 747 Мбайт
Продолжительность                        : 50 м. 46 с.
Общий поток                              : 2058 Кбит/сек
Дата кодирования                         : UTC 2018-06-24 00:05:20
Программа кодирования                    : mkvmerge v7.8.0 ('River Man') 32bit built on Apr  3 2015 12:11:22
Библиотека кодирования                   : libebml v1.3.1 + libmatroska v1.4.2
Видео
Идентификатор                            : 1
Формат                                   : AVC
Формат/Информация                        : Advanced Video Codec
Профиль формата                          : [email protected]
Параметр CABAC формата                   : Да
Параметр ReFrames формата                : 14 кадров
Идентификатор кодека                     : V_MPEG4/ISO/AVC
Продолжительность                        : 50 м. 46 с.
Битрейт                                  : 1800 Кбит/сек
Ширина                                   : 720 пикселей
Высота                                   : 400 пикселей
Соотношение сторон                       : 16:9
Режим частоты кадров                     : Постоянный
Частота кадров                           : 25,000 кадров/сек
Цветовое пространство                    : YUV
Субдискретизация насыщенности            : 4:2:0
Битовая глубина                          : 8 бит
Тип развёртки                            : Прогрессивная
Бит/(Пиксели*Кадры)                      : 0.250
Размер потока                            : 640 Мбайт (86%)
Библиотека кодирования                   : x264 core 146 r2538 121396c
Настройки программы                      : cabac=1 / ref=14 / deblock=1:-3:-2 / analyse=0x3:0x133 / me=umh / subme=9 / psy=1 / psy_rd=1.00:0.15 / mixed_ref=0 / me_range=32 / chroma_me=1 / trellis=2 / 8x8dct=1 / cqm=0 / deadzone=21,11 / fast_pskip=1 / chroma_qp_offset=-3 / threads=12 / lookahead_threads=1 / sliced_threads=0 / nr=0 / decimate=0 / interlaced=0 / bluray_compat=0 / constrained_intra=0 / bframes=14 / b_pyramid=2 / b_adapt=1 / b_bias=0 / direct=3 / weightb=1 / open_gop=0 / weightp=2 / keyint=250 / keyint_min=25 / scenecut=40 / intra_refresh=0 / rc_lookahead=40 / rc=2pass / mbtree=1 / bitrate=1800 / ratetol=1.0 / qcomp=0.60 / qpmin=0 / qpmax=37 / qpstep=4 / cplxblur=20.0 / qblur=0.5 / ip_ratio=1.40 / aq=1:1.20
Default                                  : Да
Forced                                   : Нет
Цветовой диапазон                        : Limited
Основные цвета                           : BT.601 PAL
Характеристики трансфера                 : BT.470 System B, BT.470 System G
Коэффициенты матрицы                     : BT.601
Аудио
Идентификатор                            : 2
Формат                                   : AC-3
Формат/Информация                        : Audio Coding 3
Расширение режима                        : CM (complete main)
Параметр Endianness формата              : Big
Идентификатор кодека                     : A_AC3
Продолжительность                        : 50 м. 46 с.
Вид битрейта                             : Постоянный
Битрейт                                  : 256 Кбит/сек
Каналы                                   : 2 канала
Расположение каналов                     : Front: L R
Частота                                  : 48,0 КГц
Частота кадров                           : 31,250 кадров/сек (1536 spf)
Битовая глубина                          : 16 бит
Метод сжатия                             : С потерями
Размер потока                            : 93,0 Мбайт (12%)
Default                                  : Да
Forced                                   : Нет
Download / Скачать

Хотите скачать бесплатно? Зарегистрируйтесь на сайте (ссылка на регистрацию). Pirat.ca - самый быстрый торрент трекер в рунете!

Как скачивать  ·   Что такое торрент  ·   Рейтинг и ограничения

Показать сообщения:    
Ответить на тему

Текущее время: Сегодня 00:04

Часовой пояс: GMT + 4



Вы не можете начинать темы
Вы не можете отвечать на сообщения
Вы не можете редактировать свои сообщения
Вы не можете удалять свои сообщения
Вы не можете голосовать в опросах
Вы не можете прикреплять файлы к сообщениям
Вы не можете скачивать файлы

Майнать ▼