Шерлок Гномс / Sherlock Gnomes (Джон Стивенсон / John Stevenson) [2018 г., приключения, комедия, фэнтези, драма, семейный, HDRip, 480p] Dub

Ответить на тему
 
Автор
Сообщение

Пост 29-Июн-2018 13:10

[Q] 

SwordFish

Морской Волк

-Шерлок Гномс / Sherlock Gnomes«Тотальное загномление»-- Производство: Великобритания, США, Metro-Goldwyn-Mayer (MGM)
Режиссёр: Джон Стивенсон / John Stevenson
Жанр: приключения, комедия, фэнтези, драма, семейный
Год выпуска: 2018 г.
Продолжительность: 01:27:08
Мировая премьера: 15 марта 2018
Российская премьера: 15 марта 2018, «Централ Партнершип»
Перевод: Профессиональный (полное дублирование) [Line]Присутствуют вставки видео и аудиорекламы
Роли озвучивали: Эмили Блант, Джонни Депп, Джеймс МакЭвой, Мэри Джей Блайдж, Майкл Кейн, Мэгги Смит, Чиветел Эджиофор, Стивен Мерчант-Описание: Гномео и Джульетту ждет новое захватывающее приключение - теперь в огромном Лондоне. Когда герои с семьями и друзьями переезжают в город, их главная забота - подготовить свой новый сад к весне. Но вскоре они узнают тревожную новость: по всему Лондону таинственным образом исчезают их собратья-гномы! И вот однажды Гномео и Джульетта, вернувшись домой, обнаруживают, что и вся их родня исчезла. В такой ситуации на выручку может прийти только... Шерлок Гномс. Известный детектив становится на защиту обитателей лондонских садов и не без помощи своего верного спутника Ватсона берется раскрыть запутанное дело.-
Качество видео: HDRip
Контейнер: AVI
Стандарт разрешения: 480p
Видео кодек: Другой MPEG4
Аудио кодек: AC3
Видео: XviD, 1788 Кбит/с, 720x304, 23.976 FPS
Аудио: AC3, 2 ch, 448 Кбит/с, 48.0 kHz
Cубтитры: отсутствуют
General
Complete name : D:\Films\SheR.GnOmeK.2O18.D.HDRip.14OOMB.avi
Format : AVI
Format/Info : Audio Video Interleave
File size : 1.37 GiB
Duration : 1 h 27 min
Overall bit rate : 2 246 kb/s
Writing application : VirtualDubMod 1.5.10.2 (build 2540/release)
Writing library : VirtualDubMod build 2540/release
Video
ID : 0
Format : MPEG-4 Visual
Format profile : Advanced Simple@L5
Format settings : BVOP2 / Custom Matrix
Format settings, BVOP : 2
Format settings, QPel : No
Format settings, GMC : No warppoints
Format settings, Matrix : Custom
Codec ID : XVID
Codec ID/Hint : XviD
Duration : 1 h 27 min
Bit rate : 1 789 kb/s
Width : 720 pixels
Height : 304 pixels
Display aspect ratio : 2.35:1
Frame rate : 23.976 (24000/1001) FPS
Color space : YUV
Chroma subsampling : 4:2:0
Bit depth : 8 bits
Scan type : Progressive
Compression mode : Lossy
Bits/(Pixel*Frame) : 0.341
Stream size : 1.09 GiB (80%)
Writing library : XviD 1.2.1 (UTC 2008-12-04)
Audio
ID : 1
Format : AC-3
Format/Info : Audio Coding 3
Codec ID : 2000
Duration : 1 h 27 min
Bit rate mode : Constant
Bit rate : 448 kb/s
Channel(s) : 2 channels
Channel positions : Front: L R
Sampling rate : 48.0 kHz
Frame rate : 31.250 FPS (1536 SPF)
Bit depth : 16 bits
Compression mode : Lossy
Stream size : 279 MiB (20%)
Alignment : Split accross interleaves
Interleave, duration : 42 ms (1.00 video frame)
Interleave, preload duration : 500 ms
Service kind : Complete Main
Download / Скачать

Хотите скачать бесплатно? Зарегистрируйтесь на сайте (ссылка на регистрацию). Pirat.ca - самый быстрый торрент трекер в рунете!

Как скачивать  ·   Что такое торрент  ·   Рейтинг и ограничения

Показать сообщения:    
Ответить на тему

Текущее время: Сегодня 15:52

Часовой пояс: GMT + 4



Вы не можете начинать темы
Вы не можете отвечать на сообщения
Вы не можете редактировать свои сообщения
Вы не можете удалять свои сообщения
Вы не можете голосовать в опросах
Вы не можете прикреплять файлы к сообщениям
Вы не можете скачивать файлы

Майнать ▼