Путеводная звезда / The Star (Тимоти Рекарт / Timothy Reckart) [2017 г., мультфильм, фэнтези, комедия, приключения, семейны, BDRip-AVC] Dub Sub (Rus+UA+ENG) + Original (Eng)

Ответить на тему
 
Автор
Сообщение

Пост 29-Июн-2018 13:58

[Q] 

SwordFish

Морской Волк

-Путеводная звезда / The Star«It Takes Many Tails to Tell the Greatest Story Ever» -- Производство: США
Режиссёр: Тимоти Рекарт / Timothy Reckart
Жанр: мультфильм, фэнтези, комедия, приключения, семейны
Год выпуска: 2017 г.
Продолжительность: 01:26:06
Перевод: Профессиональный (полное дублирование)
Оригинальный аудиопоток: английский
Роли озвучивали: Стивен Ян, Кигэн-Майкл Ки, Эйди Брайант, Джина Родригез, Закари Левай, Кристофер Пламмер, Винг Реймз, Габриэль Иглесиас, Келли Кларксон, Энтони Андерсон-Описание: Маленький отважный ослик по имени Бо работает на мельнице, мечтая вырваться на свободу и повидать мир. И в один прекрасный день его желание исполняется! Бо видит в небе необычайно яркую звезду и решает отправиться по пути, который она указывает. Его ждут удивительные приключения и встреча с новыми друзьями, среди которых найдется милая овечка, голубь-шутник и даже троица верблюдов. Разношерстной компании путешественников предстоит стать невольными участниками и свидетелями самого волшебного и чудесного события — Рождества.-
Качество видео: BDRip-AVC
Контейнер: MKV
Видео кодек: MPEG4 AVC
Аудио кодек: AC3
Видео: AVC, 1112x600 (1.83:1), 2538 kbps, 23.976 fps, 0.159 bit/pixel
Аудио #1: RUS AC3 Dolby Digital, 3/2 (L,C,R,l,r) + LFE ch, 48.0 KHz, 448 Kbps
Аудио #2: ENG AC3 Dolby Digital, 3/2 (L,C,R,l,r) + LFE ch, 48.0 KHz, 448 Kbps
Cубтитры: Русские (Форсированные, Полные) Украинские (Полные), Английские (Full, SDH, SDH-Colored)
Формат субтитров: softsub (SRT)
General
Unique ID : 203371062622092772730271987235585837504 (0x98FFD788E4A6D9B19328393CDA30C9C0)
Complete name : The Star (2017).mkv
Format : Matroska
Format version : Version 4 / Version 2
File size : 2.07 GiB
Duration : 1 h 26 min
Overall bit rate : 3 437 kb/s
Movie name : Путеводная звезда / The Star (2017)
Encoded date : UTC 2018-03-17 23:08:13
Writing application : mkvmerge v8.1.0 ('Psychedelic Postcard') 64bit
Writing library : libebml v1.3.1 + libmatroska v1.4.2
Cover : Yes
Attachments : cover.jpg
Video
ID : 1
Format : AVC
Format/Info : Advanced Video Codec
Format profile : High@L4.1
Format settings : CABAC / 12 Ref Frames
Format settings, CABAC : Yes
Format settings, ReFrames : 12 frames
Codec ID : V_MPEG4/ISO/AVC
Duration : 1 h 26 min
Bit rate : 2 538 kb/s
Width : 1 112 pixels
Height : 600 pixels
Display aspect ratio : 1.85:1
Frame rate mode : Constant
Frame rate : 23.976 (24000/1001) FPS
Color space : YUV
Chroma subsampling : 4:2:0
Bit depth : 8 bits
Scan type : Progressive
Bits/(Pixel*Frame) : 0.159
Stream size : 1.53 GiB (74%)
Title : The Star (2017) By optik.1557
Writing library : x264 core 155 r2901 7d0ff22
Encoding settings : cabac=1 / ref=12 / deblock=1:-2:-1 / analyse=0x3:0x113 / me=umh / subme=10 / psy=1 / psy_rd=1.05:0.01 / mixed_ref=1 / me_range=32 / chroma_me=1 / trellis=2 / 8x8dct=1 / cqm=0 / deadzone=21,11 / fast_pskip=0 / chroma_qp_offset=-3 / threads=6 / lookahead_threads=1 / sliced_threads=0 / nr=0 / decimate=1 / interlaced=0 / bluray_compat=0 / constrained_intra=0 / bframes=11 / b_pyramid=2 / b_adapt=2 / b_bias=0 / direct=1 / weightb=1 / open_gop=0 / weightp=2 / keyint=250 / keyint_min=23 / scenecut=40 / intra_refresh=0 / rc_lookahead=60 / rc=crf / mbtree=0 / crf=17.7 / qcomp=0.70 / qpmin=0 / qpmax=69 / qpstep=4 / vbv_maxrate=50000 / vbv_bufsize=62500 / crf_max=0.0 / nal_hrd=none / filler=0 / ip_ratio=1.40 / pb_ratio=1.30 / aq=3:0.85
Language : English
Default : Yes
Forced : No
Audio #1
ID : 2
Format : AC-3
Format/Info : Audio Coding 3
Codec ID : A_AC3
Duration : 1 h 26 min
Bit rate mode : Constant
Bit rate : 448 kb/s
Channel(s) : 6 channels
Channel positions : Front: L C R, Side: L R, LFE
Sampling rate : 48.0 kHz
Frame rate : 31.250 FPS (1536 SPF)
Bit depth : 16 bits
Compression mode : Lossy
Stream size : 276 MiB (13%)
Title : Дубляж
Language : Russian
Service kind : Complete Main
Default : Yes
Forced : No
Audio #2
ID : 3
Format : AC-3
Format/Info : Audio Coding 3
Codec ID : A_AC3
Duration : 1 h 26 min
Bit rate mode : Constant
Bit rate : 448 kb/s
Channel(s) : 6 channels
Channel positions : Front: L C R, Side: L R, LFE
Sampling rate : 48.0 kHz
Frame rate : 31.250 FPS (1536 SPF)
Bit depth : 16 bits
Compression mode : Lossy
Stream size : 276 MiB (13%)
Title : Original
Language : English
Service kind : Complete Main
Default : No
Forced : No
Text #1
ID : 4
Format : UTF-8
Codec ID : S_TEXT/UTF8
Codec ID/Info : UTF-8 Plain Text
Duration : 2 min 5 s
Bit rate : 6 b/s
Count of elements : 2
Stream size : 108 Bytes (0%)
Title : Форсированные
Language : Russian
Default : Yes
Forced : No
Text #2
ID : 5
Format : UTF-8
Codec ID : S_TEXT/UTF8
Codec ID/Info : UTF-8 Plain Text
Duration : 1 h 18 min
Bit rate : 104 b/s
Count of elements : 1287
Stream size : 60.0 KiB (0%)
Title : Полные
Language : Russian
Default : No
Forced : No
Text #3
ID : 6
Format : UTF-8
Codec ID : S_TEXT/UTF8
Codec ID/Info : UTF-8 Plain Text
Duration : 1 h 24 min
Bit rate : 90 b/s
Count of elements : 1287
Stream size : 56.2 KiB (0%)
Title : Полные
Language : Ukrainian
Default : No
Forced : No
Text #4
ID : 7
Format : UTF-8
Codec ID : S_TEXT/UTF8
Codec ID/Info : UTF-8 Plain Text
Duration : 1 h 16 min
Bit rate : 69 b/s
Count of elements : 1283
Stream size : 38.9 KiB (0%)
Title : Full
Language : English
Default : No
Forced : No
Text #5
ID : 8
Format : UTF-8
Codec ID : S_TEXT/UTF8
Codec ID/Info : UTF-8 Plain Text
Duration : 1 h 23 min
Bit rate : 77 b/s
Count of elements : 1638
Stream size : 47.5 KiB (0%)
Title : SDH
Language : English
Default : No
Forced : No
Text #6
ID : 9
Format : UTF-8
Codec ID : S_TEXT/UTF8
Codec ID/Info : UTF-8 Plain Text
Duration : 1 h 23 min
Bit rate : 152 b/s
Count of elements : 1638
Stream size : 93.5 KiB (0%)
Title : SDH-Colored
Language : English
Default : No
Forced : No
Menu
00:00:00.000 : en:Chapter 1
00:04:20.385 : en:Chapter 2
00:08:07.112 : en:Chapter 3
00:13:11.290 : en:Chapter 4
00:18:07.753 : en:Chapter 5
00:21:29.246 : en:Chapter 6
00:25:59.224 : en:Chapter 7
00:30:26.825 : en:Chapter 8
00:34:41.997 : en:Chapter 9
00:39:09.722 : en:Chapter 10
00:47:09.910 : en:Chapter 11
00:52:29.772 : en:Chapter 12
00:57:39.414 : en:Chapter 13
01:04:37.874 : en:Chapter 14
01:09:35.171 : en:Chapter 15
01:13:40.875 : en:Chapter 16
raw [info]: 1112x600p 1:1 @ 24000/1001 fps (cfr)
x264 [info]: using SAR=1/1
x264 [info]: using cpu capabilities: MMX2 SSE2Fast SSSE3 SSE4.2 AVX
x264 [info]: profile High, level 4.1
x264 [info]: frame I:1110 Avg QP:15.05 size:120233
x264 [info]: frame P:32207 Avg QP:16.97 size: 26390
x264 [info]: frame B:90546 Avg QP:20.48 size: 7237
x264 [info]: consecutive B-frames: 2.4% 5.5% 6.5% 64.3% 6.2% 8.9% 1.5% 3.3% 0.6% 0.3% 0.1% 0.6%
x264 [info]: mb I I16..4: 2.8% 75.6% 21.6%
x264 [info]: mb P I16..4: 0.6% 9.8% 1.7% P16..4: 29.9% 19.5% 12.9% 0.0% 0.0% skip:25.7%
x264 [info]: mb B I16..4: 0.1% 0.9% 0.2% B16..8: 27.4% 8.1% 3.0% direct: 3.8% skip:56.6% L0:36.2% L1:46.4% BI:17.4%
x264 [info]: 8x8 transform intra:79.2% inter:60.5%
x264 [info]: coded y,uvDC,uvAC intra: 89.5% 88.0% 70.4% inter: 15.7% 12.6% 4.3%
x264 [info]: i16 v,h,dc,p: 16% 14% 4% 67%
x264 [info]: i8 v,h,dc,ddl,ddr,vr,hd,vl,hu: 14% 14% 7% 8% 10% 10% 12% 10% 14%
x264 [info]: i4 v,h,dc,ddl,ddr,vr,hd,vl,hu: 12% 10% 4% 8% 15% 13% 14% 10% 12%
x264 [info]: i8c dc,h,v,p: 38% 26% 19% 17%
x264 [info]: Weighted P-Frames: Y:2.8% UV:1.8%
x264 [info]: ref P L0: 56.9% 13.1% 12.4% 4.3% 3.2% 2.6% 2.1% 1.3% 1.1% 1.0% 0.9% 1.0% 0.0% 0.0%
x264 [info]: ref B L0: 84.0% 7.3% 3.3% 1.5% 1.1% 0.8% 0.7% 0.4% 0.4% 0.3% 0.2%
x264 [info]: ref B L1: 95.1% 4.9%
x264 [info]: kb/s:2537.62
Download / Скачать

Хотите скачать бесплатно? Зарегистрируйтесь на сайте (ссылка на регистрацию). Pirat.ca - самый быстрый торрент трекер в рунете!

Как скачивать  ·   Что такое торрент  ·   Рейтинг и ограничения

Показать сообщения:    
Ответить на тему

Текущее время: Сегодня 15:58

Часовой пояс: GMT + 4



Вы не можете начинать темы
Вы не можете отвечать на сообщения
Вы не можете редактировать свои сообщения
Вы не можете удалять свои сообщения
Вы не можете голосовать в опросах
Вы не можете прикреплять файлы к сообщениям
Вы не можете скачивать файлы

Майнать ▼