Ограбление в ураган / The Hurricane Heist (Роб Коэн/Rob Cohen) [2018 г., Боевик, триллер, WEB-DL, 1080p] Dub (iTunes)

Ответить на тему
 
Автор
Сообщение

Пост 25-Апр-2018 09:57

[Q] 

AlexDjas

Флибустьер

--Ограбление в ураган / The Hurricane Heist--«The ultimate storm for the perfect heist»-- Производство: США | Dream Team Films Pvt. Ltd., Foresight Unlimited, Head Gear Films
Год выпуска: 2018 г.
Жанр: Боевик, триллер
Продолжительность: 01:42:31
Мировая премьера: 28 февраля 2018
Российская премьера: 8 марта 2018, «MEGOGO Distribution»
Перевод: Профессиональный (полное дублирование) [iTunes]
Режиссёр: Роб Коэн/Rob Cohen--В ролях: Тоби Кеббелл, Мэгги Грэйс, Райан Квантен, Ралф Айнесон, Мелисса Болона, Бен Кросс, Джэми Эндрю Катлер, Кристиан Райан Контрерас, Jimmy Walker, Эд Бирч--Описание: На побережье Америки стремительно надвигается ураган. Тем временем банда воров планирует идеальное ограбление: украсть 600 миллионов долларов из казначейства США, воспользовавшись стихийным бедствием как прикрытием. Но один фактор грабители не учли — честную и подготовленную работницу казначейства. Женщина вовремя объединяется с исследователем ураганов на специализированном бронированном автомобиле, и теперь они — единственные, кто может помешать ворам осуществить план ограбления. Почти единственные, ведь для урагана вне категорий не существует деления на своих и чужих.-- Качество видео: WEB-DL
Контейнер: MKV
Стандарт разрешения: 1080p
Видео кодек: MPEG4 AVC
Аудио кодек: AC3
Видео: H.264/AVC, 1912x824 (2.35:1), ~4597 kbps, 23.976 fps
Аудио: AC3, 6 ch, 48.0 kHz, 384 kbps
Cубтитры: отсутствуют
Общее
Уникальный идентификатор : 217989126614027716164720954845938254132 (0xA3FF2DBBFC3AF431868F3BC0A1CF0134)
Полное имя : D:\торрент\The_Hurricane_Heist_2018_WEB-DL_1080p[pirat.ca].mkv
Формат : Matroska
Версия формата : Version 2
Размер файла : 3,57 Гбайт
Продолжительность : 1 ч. 42 м.
Общий поток : 4983 Кбит/сек
Название фильма : The_Hurricane_Heist_2018_WEB-DL_1080p
Дата кодирования : UTC 2018-04-18 18:17:35
Программа кодирования : mkvmerge v8.3.0 ('Over the Horizon') 64bit
Библиотека кодирования : libebml v1.3.1 + libmatroska v1.4.2
Видео
Идентификатор : 1
Формат : AVC
Формат/Информация : Advanced Video Codec
Профиль формата : [email protected]
Настройки формата : CABAC / 5 Ref Frames
Параметр CABAC формата : Да
Параметр RefFrames формата : 5 кадров
Идентификатор кодека : V_MPEG4/ISO/AVC
Продолжительность : 1 ч. 42 м.
Битрейт : 4597 Кбит/сек
Ширина : 1912 пикселей
Высота : 824 пикселя
Соотношение сторон : 2,35:1
Режим частоты кадров : Постоянный
Частота кадров : 23,976 (24000/1001) кадра/сек
Цветовое пространство : YUV
Субдискретизация насыщенности : 4:2:0
Битовая глубина : 8 бит
Тип развёртки : Прогрессивная
Бит/(Пиксели*Кадры) : 0.122
Размер потока : 3,29 Гбайт (92%)
Заголовок : The_Hurricane_Heist_2018_WEB-DL_1080p
Язык : English
Default : Да
Forced : Нет
Цветовой диапазон : Limited
Основные цвета : BT.709
Характеристики трансфера : BT.709
Коэффициенты матрицы : BT.709
Аудио
Идентификатор : 2
Формат : AC-3
Формат/Информация : Audio Coding 3
Идентификатор кодека : A_AC3
Продолжительность : 1 ч. 42 м.
Вид битрейта : Постоянный
Битрейт : 384 Кбит/сек
Каналы : 6 каналов
Расположение каналов : Front: L C R, Side: L R, LFE
Частота : 48,0 КГц
Частота кадров : 31,250 кадров/сек (1536 SPF)
Битовая глубина : 16 бит
Метод сжатия : С потерями
Размер потока : 282 Мбайт (8%)
Заголовок : iTunes
Язык : Russian
ServiceKind/String : Complete Main
Default : Да
Forced : Нет
Меню
00:00:00.000 : en:1
00:04:08.000 : en:2
00:15:12.000 : en:3
00:25:20.000 : en:4
00:33:43.000 : en:5
00:45:20.000 : en:6
00:56:18.000 : en:7
01:06:24.000 : en:8
01:17:18.000 : en:9
01:24:40.000 : en:10
01:33:31.000 : en:11
Download / Скачать

Хотите скачать бесплатно? Зарегистрируйтесь на сайте (ссылка на регистрацию). Pirat.ca - самый быстрый торрент трекер в рунете!

Как скачивать  ·   Что такое торрент  ·   Рейтинг и ограничения

tank69

Корсар

1147

Пост 26-Апр-2018 12:18 (спустя 1 день 2 часа)

[Q] 

Смотрибельное кино!
Автору релиза - респект!
Одобрямс!
[Профиль]  [ЛС] 

moscowpan

Гроза морей

4440

Пост 26-Апр-2018 21:40 (спустя 9 часов)

[Q] 

ну что ж, посмотрим как грабить)

_________________
[Профиль]  [ЛС] 

Kesseril

Шкипер

Пост 27-Апр-2018 21:00 (спустя 23 часа)

[Q] 

на раздачу встанет ктонить?
[Профиль]  [ЛС] 

pvm

Флибустьер

Пост 30-Апр-2018 21:24 (спустя 3 дня)

[Q] 

Не думать, только смотреть
[Профиль]  [ЛС] 

trip

Морской Волк

Пост 30-Июн-2018 13:34 (спустя 1 месяц 29 дней)

[Q] 

Спасибо!!! глянем))
[Профиль]  [ЛС] 

exelero07

Гроза морей

Пост 21-Июл-2018 00:33 (спустя 20 дней)

[Q] 

интересный и бодрый боевик
[Профиль]  [ЛС] 
Показать сообщения:    
Ответить на тему

Текущее время: Сегодня 23:21

Часовой пояс: GMT + 4



Вы не можете начинать темы
Вы не можете отвечать на сообщения
Вы не можете редактировать свои сообщения
Вы не можете удалять свои сообщения
Вы не можете голосовать в опросах
Вы не можете прикреплять файлы к сообщениям
Вы не можете скачивать файлы

Майнать ▼