Селфи (Николай Хомерики) [2017 г., Триллер, Драма, WEB-DLRip, 1080p]

Ответить на тему
 
Автор
Сообщение

Пост 25-Мар-2018 09:56

[Q] 

AlexDjas

Гроза морей

--Селфи-- Производство: Россия, Art Pictures Studio, Кинослово
Режиссёр: Николай Хомерики
Жанр: Триллер, Драма
Год выпуска: 2017 г.
Продолжительность: 01:49:51
Российская премьера: 1 февраля 2018, «WDSSPR»--В ролях: Константин Хабенский, Юлия Хлынина, Фёдор Бондарчук, Анна Михалкова, Северия Янушаускайте, Михаил Мухтасипов, Александра Велескевич, Сергей Бондаренко, Андрей Гринев, Марина Калецкая--Описание: Он полностью копировал его - жесты, мимика, даже шутил так, что никто не заподозрил подмены. Богданов смотрел в экран, как в зеркало. Двойник вел его телепередачу, встречался с его фанатами-читателями, жил с его женщинами, выпивал в баре с его друзьями... Это произошло вмиг - раз - тебя стерли, твою личность, и тут бессильны лучшие психоаналитики. Публичный и успешный, остроумный и циничный, Богданов лишился всего, чего добивался годами, выстраивая свою карьеру и жизнь. И теперь он отчетливо понимал: копия лучше и честнее его самого, битва за себя проиграна. И только дочь хочет вернуть истинного Богданова.--
Качество видео: WEB-DLRip
Контейнер: MKV
Стандарт разрешения: 1080p
Видео кодек: H.264
Аудио кодек: AC3
Видео: AVC/H.264, 1920x720 (2.66:7), 4531 kbps, 25 fps
Аудио: 48 kHz, AC3 Dolby Digital, 3/2 (L,C,R,l,r) + LFE ch, ~384 kbps
Cубтитры: отсутствуют
Общее
Уникальный идентификатор : 253210206366253369538079219812136400345 (0xBE7E8309AF3C02921CF51332D35835D9)
Полное имя : G:\Фильмы\Селфи.2017.WEB-DL.[1080p].[pirat.ca].mkv
Формат : Matroska
Версия формата : Version 4 / Version 2
Размер файла : 3,77 Гбайт
Продолжительность : 1 ч. 49 м.
Общий поток : 4917 Кбит/сек
Название фильма : Селфи.2017[pirat.ca]
Дата кодирования : UTC 2018-03-24 19:18:17
Программа кодирования : mkvmerge v20.0.0 ('I Am The Sun') 64-bit
Библиотека кодирования : libebml v1.3.5 + libmatroska v1.4.8
Видео
Идентификатор : 1
Формат : AVC
Формат/Информация : Advanced Video Codec
Профиль формата : [email protected]
Настройки формата : CABAC / 5 Ref Frames
Параметр CABAC формата : Да
Параметр RefFrames формата : 5 кадров
Идентификатор кодека : V_MPEG4/ISO/AVC
Продолжительность : 1 ч. 49 м.
Битрейт : 4435 Кбит/сек
Ширина : 1920 пикселей
Высота : 720 пикселей
Соотношение сторон : 2,667
Режим частоты кадров : Постоянный
Частота кадров : 25,000 кадров/сек
Цветовое пространство : YUV
Субдискретизация насыщенности : 4:2:0
Битовая глубина : 8 бит
Тип развёртки : Прогрессивная
Бит/(Пиксели*Кадры) : 0.128
Размер потока : 3,40 Гбайт (90%)
Язык : English
Default : Да
Forced : Нет
Цветовой диапазон : Limited
Основные цвета : BT.709
Характеристики трансфера : BT.709
Коэффициенты матрицы : BT.709
Statistics Tags Issue : mkvmerge v20.0.0 ('I Am The Sun') 64-bit 2018-03-18 19:18:17 / mkvmerge v20.0.0 ('I Am The Sun') 64-bit 2018-03-24 19:18:17
FromStats_BitRate : 4531124
FromStats_Duration : 01:49:50.960000000
FromStats_FrameCount : 164774
FromStats_StreamSize : 3733057803
Аудио
Идентификатор : 2
Формат : AC-3
Формат/Информация : Audio Coding 3
Идентификатор кодека : A_AC3
Продолжительность : 1 ч. 49 м.
Вид битрейта : Постоянный
Битрейт : 384 Кбит/сек
Каналы : 6 каналов
Расположение каналов : Front: L C R, Side: L R, LFE
Частота : 48,0 КГц
Частота кадров : 31,250 кадров/сек (1536 SPF)
Битовая глубина : 16 бит
Метод сжатия : С потерями
Задержка видео : -40 мс.
Размер потока : 302 Мбайт (8%)
Заголовок : iTunes
Язык : Russian
ServiceKind/String : Complete Main
Default : Да
Forced : Нет
Statistics Tags Issue : mkvmerge v20.0.0 ('I Am The Sun') 64-bit 2018-03-18 19:18:17 / mkvmerge v20.0.0 ('I Am The Sun') 64-bit 2018-03-24 19:18:17
FromStats_BitRate : 384000
FromStats_Duration : 01:49:51.008000000
FromStats_FrameCount : 205969
FromStats_StreamSize : 316368384
Download / Скачать

Хотите скачать бесплатно? Зарегистрируйтесь на сайте (ссылка на регистрацию). Pirat.ca - самый быстрый торрент трекер в рунете!

Как скачивать  ·   Что такое торрент  ·   Рейтинг и ограничения

tumparov

Корсар

Пост 25-Мар-2018 17:11 (спустя 7 часов)

[Q] 

Ну с, поехали с просмотром, надеюсь на лучшее_) Спасибо!!!
[Профиль]  [ЛС] 

kloctuk

3999

Пост 26-Мар-2018 00:06 (спустя 6 часов)

[Q] 

ИМХО, конечно, но надежды не оправдались...

_________________
-выстрели еще разок. -зачем? - его душа еще танцует...
[Профиль]  [ЛС] 

grosboy

Гроза морей

Пост 26-Мар-2018 00:28 (спустя 22 минуты)

[Q] 

Фильм понравился. С Оочень глубоким смыслом... Рекомендую.!!!

_________________
Щастье есть - его не может не быть...
[Профиль]  [ЛС] 

Hippopotam

Флибустьер

Пост 26-Мар-2018 15:09 (спустя 14 часов)

[Q] 

Сорри, но...неудачный фильм по неудачному сценарию самовлюбленного г-на Минаева. Закос под интеллектуальное кино, но не оно это...не оно...Да! Хабенский, как всегда, превосходен. За его существованием в кинопространстве и здесь интересно наблюдать Спасибо!!! На любителя
[Профиль]  [ЛС] 

moscowpan

Гроза морей

4488

Пост 26-Мар-2018 19:15 (спустя 4 часа)

[Q] 

глянем, что ещё делать то Раздающему респект!

_________________
[Профиль]  [ЛС] 

tumparov

Корсар

Пост 27-Мар-2018 05:04 (спустя 9 часов)

[Q] 

ну в общем то смысл дошел, примерно в жизни у меня такой же бардак, меня разрывает на две личности давно уже, но вот тут я все таки маянья не увидел, алкашка, спиды,, это мы все проходили, где переживания, нет их, увы_!!!!
[Профиль]  [ЛС] 

black63

Шкипер

Пост 27-Мар-2018 09:50 (спустя 4 часа)

[Q] 

Интригующе надо смотреть.
[Профиль]  [ЛС] 

zvezda_2s

Флибустьер

Пост 28-Мар-2018 12:01 (спустя 1 день 2 часа)

[Q] 

Вот это людей штырит!
[Профиль]  [ЛС] 

alersander

Корсар

Пост 28-Мар-2018 20:09 (спустя 8 часов)

[Q] 

Есть разные мнения, значит фильм интересный Лови бочку
[Профиль]  [ЛС] 

miik

Шкипер

Пост 29-Мар-2018 23:11 (спустя 1 день 3 часа)

[Q] 

Посмотрел сей "шедевр", что можно сказать, Хабенский молодец, всё остальное какая-то несуразица.
[Профиль]  [ЛС] 

realleo

Корсар

Пост 03-Апр-2018 21:16 (спустя 4 дня)

[Q] 

так смотреть или нет? наш кинематограф то еще гуано, но вдруг именно этот??
[Профиль]  [ЛС] 

feldorius

Корсар

Пост 19-Апр-2018 23:09 (спустя 16 дней)

[Q] 

Лично мне фильм не понравился.
Пытались-пытались, пытались-пытались, но что-то не вышло. Посыла я так и не понял.
Хабенский все равно был хорош.
Но фильм в целом - не очень мне понравился.
[Профиль]  [ЛС] 

Mustafa Sazont

Корсар

Пост 11-Май-2018 14:21 (спустя 21 день)

[Q] 

Фильм одного актера. Хабенский молодец! Фильм ерунда.
[Профиль]  [ЛС] 

the_lame

Флибустьер

Пост 01-Июл-2018 19:30 (спустя 1 месяц 21 день)

[Q] 

На один раз пойдет вполне.
[Профиль]  [ЛС] 
Показать сообщения:    
Ответить на тему

Текущее время: Сегодня 07:49

Часовой пояс: GMT + 4



Вы не можете начинать темы
Вы не можете отвечать на сообщения
Вы не можете редактировать свои сообщения
Вы не можете удалять свои сообщения
Вы не можете голосовать в опросах
Вы не можете прикреплять файлы к сообщениям
Вы не можете скачивать файлы

Майнать ▼