Кровоточащая сталь / Ji qi zhi xue Bleeding Steel (Чжан Лицзя / Leo Zhang (as Lijia Zhang)) [2017 г., фантастика, боевик, триллер, BDRip, 720p] MVO

Ответить на тему
 
Автор
Сообщение

Пост 06-Май-2018 14:10

[Q] 

tank69

Корсар

-Кровоточащая сталь / Ji qi zhi xue Bleeding Steel-- Производство: Китай, Гонкон / Heyi Pictures, Sparkle Roll Media, Village Roadshow Pictures Asia
Год выпуска: 2017 г.
Жанр: фантастика, боевик, триллер
Продолжительность: 01:50:07
Мировая премьера: 22 декабря 2017
Перевод: Любительский (многоголосый, закадровый) [HDrezka Studio]
Перевод 2: Любительский (многоголосый, закадровый) ["Paradox" & Omskbird records]
Перевод 3: Любительский (многоголосый, закадровый) [Ворон, Wenlana, Skys, Azazel]
Режиссёр: Чжан Лицзя / Leo Zhang (as Lijia Zhang)-В ролях: Джеки Чан, Каллэн Мулвей, Тесс Хобрич, Дэмиен Гарви, Ким Джинджелл, Ольга Миллер, Шоу Ло, Брахим Ачаббаке-Описание: Крутой агент спецназа пытается защитить молодую женщину от криминальной группировки. И в то же время он чувствует с ней странную связь, как будто они встречались в другой жизни.-
Качество видео: BDRip
Контейнер: MKV
Стандарт разрешения: 720p
Видео кодек: MPEG4 AVC
Аудио кодек: AC3
Видео: AVC, 1280x536, 23.976 fps, 5000 Kbps
Аудио: русский, AC-3, 48.0 KHz, 2 ch, 192 Kbps
Аудио #2: русский, AC-3, 48.0 KHz, 2 ch, 192 Kbps
Аудио #3: русский, AC-3, 48.0 KHz, 2 ch, 192 Kbps
Аудио #4: английский, AC-3, 48.0 KHz, 6 ch, 1509 Kbps
Cубтитры: русские, английские
Общее
Уникальный идентификатор : 220436504177160901795188931543605118066 (0xA5D686C3A9C7FF9FBF3014254C1F0472)
Полное имя : C:\Users\vigor\Downloads\Bleeding Steel.2017.BDRip.720p.mkv
Формат : Matroska
Версия формата : Version 4 / Version 2
Размер файла : 5,45 Гбайт
Продолжительность : 1 ч. 50 м.
Общий поток : 7081 Кбит/сек
Название фильма : Bleeding Steel.2017.BDRip.720p
Дата кодирования : UTC 2018-05-05 10:52:24
Программа кодирования : mkvmerge v17.0.0 ('Be Ur Friend') 64-bit
Библиотека кодирования : libebml v1.3.5 + libmatroska v1.4.8
Видео
Идентификатор : 1
Формат : AVC
Формат/Информация : Advanced Video Codec
Профиль формата : [email protected]
Настройки формата : CABAC / 12 Ref Frames
Параметр CABAC формата : Да
Параметр RefFrames формата : 12 кадров
Идентификатор кодека : V_MPEG4/ISO/AVC
Продолжительность : 1 ч. 50 м.
Битрейт : 5000 Кбит/сек
Ширина : 1280 пикселей
Высота : 536 пикселей
Соотношение сторон : 2,40:1
Режим частоты кадров : Постоянный
Частота кадров : 23,976 (24000/1001) кадра/сек
Цветовое пространство : YUV
Субдискретизация насыщенности : 4:2:0
Битовая глубина : 8 бит
Тип развёртки : Прогрессивная
Бит/(Пиксели*Кадры) : 0.304
Размер потока : 3,84 Гбайт (71%)
Заголовок : iFT
Библиотека кодирования : x264 core 142 r2431+42 c69a006 tMod [[email protected] X86_64]
Настройки программы : cabac=1 / ref=12 / deblock=1:-3:-3 / analyse=0x3:0x133 / me=umh / subme=11 / psy=1 / fade_compensate=0.00 / psy_rd=1.05:1.05 / mixed_ref=1 / me_range=48 / chroma_me=1 / trellis=2 / 8x8dct=1 / cqm=0 / deadzone=21,11 / fast_pskip=0 / chroma_qp_offset=-4 / threads=16 / lookahead_threads=2 / sliced_threads=0 / nr=0 / decimate=0 / interlaced=0 / bluray_compat=0 / constrained_intra=0 / fgo=0 / bframes=8 / b_pyramid=2 / b_adapt=2 / b_bias=0 / direct=3 / weightb=1 / open_gop=0 / weightp=2 / keyint=240 / keyint_min=23 / scenecut=40 / intra_refresh=0 / rc_lookahead=100 / rc=2pass / mbtree=0 / bitrate=5000 / ratetol=1.0 / qcomp=0.80 / qpmin=0:0:0 / qpmax=69:69:69 / qpstep=4 / cplxblur=20.0 / qblur=0.5 / vbv_maxrate=40000 / vbv_bufsize=30000 / nal_hrd=none / filler=0 / ip_ratio=1.30 / pb_ratio=1.20 / aq=2:0.78 / aq-sensitivity=10.00 / aq-factor=1.00:1.00:1.00 / aq2=0 / aq3=0
Язык : Chinese
Default : Да
Forced : Нет
Цветовой диапазон : Limited
Основные цвета : BT.709
Характеристики трансфера : BT.709
Коэффициенты матрицы : BT.709
Аудио #1
Идентификатор : 2
Формат : AC-3
Формат/Информация : Audio Coding 3
Идентификатор кодека : A_AC3
Продолжительность : 1 ч. 49 м.
Вид битрейта : Постоянный
Битрейт : 192 Кбит/сек
Каналы : 2 канала
Расположение каналов : Front: L R
Частота : 48,0 КГц
Частота кадров : 31,250 кадров/сек (1536 SPF)
Битовая глубина : 16 бит
Метод сжатия : С потерями
Размер потока : 150 Мбайт (3%)
Заголовок : MVO | HDrezka Studio
Язык : Russian
ServiceKind/String : Complete Main
Default : Да
Forced : Нет
Аудио #2
Идентификатор : 3
Формат : AC-3
Формат/Информация : Audio Coding 3
Идентификатор кодека : A_AC3
Продолжительность : 1 ч. 49 м.
Вид битрейта : Постоянный
Битрейт : 192 Кбит/сек
Каналы : 2 канала
Расположение каналов : Front: L R
Частота : 48,0 КГц
Частота кадров : 31,250 кадров/сек (1536 SPF)
Битовая глубина : 16 бит
Метод сжатия : С потерями
Размер потока : 151 Мбайт (3%)
Заголовок : MVO | "Paradox" & Omskbird records
Язык : Russian
ServiceKind/String : Complete Main
Default : Нет
Forced : Нет
Аудио #3
Идентификатор : 4
Формат : AC-3
Формат/Информация : Audio Coding 3
Идентификатор кодека : A_AC3
Продолжительность : 1 ч. 49 м.
Вид битрейта : Постоянный
Битрейт : 192 Кбит/сек
Каналы : 2 канала
Расположение каналов : Front: L R
Частота : 48,0 КГц
Частота кадров : 31,250 кадров/сек (1536 SPF)
Битовая глубина : 16 бит
Метод сжатия : С потерями
Размер потока : 150 Мбайт (3%)
Заголовок : MVO | Ворон, Wenlana, Skys, Azazel
Язык : Russian
ServiceKind/String : Complete Main
Default : Нет
Forced : Нет
Аудио #4
Идентификатор : 5
Формат : DTS
Формат/Информация : Digital Theater Systems
Идентификатор кодека : A_DTS
Продолжительность : 1 ч. 50 м.
Вид битрейта : Постоянный
Битрейт : 1509 Кбит/сек
Каналы : 6 каналов
Расположение каналов : Front: L C R, Side: L R, LFE
Частота : 48,0 КГц
Частота кадров : 93,750 кадра/сек (512 SPF)
Битовая глубина : 16 бит
Метод сжатия : С потерями
Размер потока : 1,16 Гбайт (21%)
Язык : English
Default : Нет
Forced : Нет
Текст #1
Идентификатор : 6
Формат : UTF-8
Идентификатор кодека : S_TEXT/UTF8
Идентификатор кодека/Информация : UTF-8 Plain Text
Продолжительность : 1 ч. 41 м.
Битрейт : 49 бит/сек
ElementCount : 756
Размер потока : 36,6 Кбайт (0%)
Язык : Russian
Default : Нет
Forced : Нет
Текст #2
Идентификатор : 7
Формат : UTF-8
Идентификатор кодека : S_TEXT/UTF8
Идентификатор кодека/Информация : UTF-8 Plain Text
Продолжительность : 1 ч. 41 м.
Битрейт : 28 бит/сек
ElementCount : 769
Размер потока : 21,1 Кбайт (0%)
Язык : English
Default : Нет
Forced : Нет
Меню
00:00:00.000 : en:00:00:00.000
00:07:42.879 : en:00:07:42.879
00:18:16.178 : en:00:18:16.178
00:26:08.692 : en:00:26:08.692
00:35:25.123 : en:00:35:25.123
00:45:17.632 : en:00:45:17.632
00:51:54.320 : en:00:51:54.320
01:00:07.938 : en:01:00:07.938
01:09:18.738 : en:01:09:18.738
01:17:45.369 : en:01:17:45.369
01:26:30.102 : en:01:26:30.102
01:39:26.460 : en:01:39:26.460
Download / Скачать

Хотите скачать бесплатно? Зарегистрируйтесь на сайте (ссылка на регистрацию). Pirat.ca - самый быстрый торрент трекер в рунете!

Как скачивать  ·   Что такое торрент  ·   Рейтинг и ограничения



Последний раз редактировалось: tank69 (2018-05-06 22:19), всего редактировалось 3 раз(а)

tank69 ®

Корсар

1147

Пост 06-Май-2018 14:14 (спустя 4 минуты)

[Q] 

Добротный боевик с любимым Джеки Чаном в главной роли)
[Профиль]  [ЛС] 

kugesan

62859

Пост 06-Май-2018 17:33 (спустя 3 часа)

[Q] 

tank69,
Согласно заявленных тех данных здесь всего две дорожки,
-а данные Media Info говорят что дорог четыре и субтитры есть также английские
Необходдимо так же прописать какая из них Rus, а какая Eng
Аудио #1
Идентификатор : 2
Формат : AC-3
Формат/Информация : Audio Coding 3
Идентификатор кодека : A_AC3
Продолжительность : 1 ч. 49 м.
Вид битрейта : Постоянный
Битрейт : 192 Кбит/сек
Каналы : 2 канала
Расположение каналов : Front: L R
Частота : 48,0 КГц
Частота кадров : 31,250 кадров/сек (1536 SPF)
Битовая глубина : 16 бит
Метод сжатия : С потерями
Размер потока : 150 Мбайт (3%)
Заголовок : MVO | HDrezka Studio
Язык : Russian
ServiceKind/String : Complete Main
Default : Да
Forced : Нет
Аудио #2
Идентификатор : 3
Формат : AC-3
Формат/Информация : Audio Coding 3
Идентификатор кодека : A_AC3
Продолжительность : 1 ч. 49 м.
Вид битрейта : Постоянный
Битрейт : 192 Кбит/сек
Каналы : 2 канала
Расположение каналов : Front: L R
Частота : 48,0 КГц
Частота кадров : 31,250 кадров/сек (1536 SPF)
Битовая глубина : 16 бит
Метод сжатия : С потерями
Размер потока : 151 Мбайт (3%)
Заголовок : MVO | "Paradox" & Omskbird records
Язык : Russian
ServiceKind/String : Complete Main
Default : Нет
Forced : Нет
Аудио #3
Идентификатор : 4
Формат : AC-3
Формат/Информация : Audio Coding 3
Идентификатор кодека : A_AC3
Продолжительность : 1 ч. 49 м.
Вид битрейта : Постоянный
Битрейт : 192 Кбит/сек
Каналы : 2 канала
Расположение каналов : Front: L R
Частота : 48,0 КГц
Частота кадров : 31,250 кадров/сек (1536 SPF)
Битовая глубина : 16 бит
Метод сжатия : С потерями
Размер потока : 150 Мбайт (3%)
Заголовок : MVO | Ворон, Wenlana, Skys, Azazel
Язык : Russian
ServiceKind/String : Complete Main
Default : Нет
Forced : Нет
Аудио #4
Идентификатор : 5
Формат : DTS
Формат/Информация : Digital Theater Systems
Идентификатор кодека : A_DTS
Продолжительность : 1 ч. 50 м.
Вид битрейта : Постоянный
Битрейт : 1509 Кбит/сек
Каналы : 6 каналов
Расположение каналов : Front: L C R, Side: L R, LFE
Частота : 48,0 КГц
Частота кадров : 93,750 кадра/сек (512 SPF)
Битовая глубина : 16 бит
Метод сжатия : С потерями
Размер потока : 1,16 Гбайт (21%)
Язык : English
Default : Нет
Forced : Нет
Текст #1
Идентификатор : 6
Формат : UTF-8
Идентификатор кодека : S_TEXT/UTF8
Идентификатор кодека/Информация : UTF-8 Plain Text
Продолжительность : 1 ч. 41 м.
Битрейт : 49 бит/сек
ElementCount : 756
Размер потока : 36,6 Кбайт (0%)
Язык : Russian
Default : Нет
Forced : Нет
Текст #2
Идентификатор : 7
Формат : UTF-8
Идентификатор кодека : S_TEXT/UTF8
Идентификатор кодека/Информация : UTF-8 Plain Text
Продолжительность : 1 ч. 41 м.
Битрейт : 28 бит/сек
ElementCount : 769
Размер потока : 21,1 Кбайт (0%)
Язык : English
Default : Нет
Forced : Нет
Исправьте!
Реклама есть?

_________________
В мире две бесконечности: вселенная и человеческая глупость - Альберт Эйнштен
«Можно вытащить человека из грязи, но нельзя вытащить грязь из человека»!
[Профиль]  [ЛС] 

tank69 ®

Корсар

1147

Пост 06-Май-2018 20:59 (спустя 3 часа)

[Q] 

Рекламы нет, звуковые дорожки исправил.
[Профиль]  [ЛС] 

Кристина119

Гроза морей

Пост 07-Май-2018 13:47 (спустя 16 часов)

[Q] 

сдает Джеки в последнее время...
[Профиль]  [ЛС] 

Wrack

Штурман

Пост 27-Май-2018 19:15 (спустя 20 дней)

[Q] 

824907сдает Джеки в последнее время...
ну так уже дедушка Джеки
[Профиль]  [ЛС] 

gosha766

Шкипер

Пост 04-Июн-2018 14:29 (спустя 7 дней)

[Q] 

Превосходно. Джеки Чан как всегда многогранен.
[Профиль]  [ЛС] 

MrP

Штурман

Пост 01-Июл-2018 21:48 (спустя 27 дней)

[Q] 

Джекии старичок:) Лови бочку Спасибо!!!
[Профиль]  [ЛС] 

exelero07

Гроза морей

Пост 21-Июл-2018 00:36 (спустя 19 дней)

[Q] 

д. чан это всегда круто
[Профиль]  [ЛС] 
Показать сообщения:    
Ответить на тему

Текущее время: Сегодня 22:06

Часовой пояс: GMT + 4



Вы не можете начинать темы
Вы не можете отвечать на сообщения
Вы не можете редактировать свои сообщения
Вы не можете удалять свои сообщения
Вы не можете голосовать в опросах
Вы не можете прикреплять файлы к сообщениям
Вы не можете скачивать файлы

Майнать ▼